Геракл: Начало легенды 3D/ The Legend of Hercules 3D

Ответить на тему
 

Narik-uz ®

Стаж: 2 года 1 месяц

Сообщений: 4

Симпатии: 5

Геракл: Начало легенды 3D/ The Legend of Hercules 3D--
Год:2014
Страна: США, Болгария
Слоган: «Every man has a destiny»
Режиссер: Ренни Харлин
Ролях:Келлан Латс
Скотт Эдкинс,
Лиам МакИнтайр
Гайя Уайсс,
Лиам Гэрриган
Сценарий: Шон Худ, Дэниэл Джиат, Ренни Харлин, ...
Продюсер: Боаз Дэвидсон, Ренни Харлин, Дэнни Лернер, ...
Оператор: Сэм МакКёрди
Композитор: Туомас Кантелинен
Художник: Люка Транчино, Иван Ранхелов, Соня Савова, ...
Монтаж: Венсан Табайон
Жанр: боевик, фэнтези, ...
Бюджет: $70 000 000
Сборы США: $18 848 538
Сборы мире:+ $42 430 914 = $61 279 452 сборы
Сборы в России: $4 823 767
Зрители: Китай 693.9 тыс., Россия 646.1 тыс., Бразилия 591.5 тыс., ...
Премьера: (мир) 8 января 2014, ...
Премьера: (РФ) 23 января 2014, «Наше Кино» 3D
Релиз: на Blu-Ray 9 сентября 2014, «Lizard Cinema Trade», ...
Релиз: на DVD 9 сентября 2014, «Lizard Cinema Trade», ...
Возраст: 12+
Рейтинг MPAA: рейтинг PG-13
Время: 99 мин. / 01:39
Формат:
Video: MPEG4 Video (H264) 1920x1080 23.976fps [Video]
Audio: Dolby AC3 48000Hz stereo [Audio]
--

Media info

General
Unique ID : 200710598623060068234947860412344009361 (0x96FF7488469BB342877B4223DE538291)
Complete name : K:\3D KINO\Геракл Начало легенды 2014 3D\ГЕРАКЛ НАЧАЛО ЛЕГЕНДЫ.mkv
Format : Matroska
Format version : Version 2
File size : 11.1 GiB
Duration : 1h 38mn
Overall bit rate mode : Variable
Overall bit rate : 16.2 Mbps
Movie name : HERCULES_3D_NNMClub.Title0.Bluray3DRip
Encoded date : UTC 2014-04-08 13:41:33
Writing application : DVDFab
Writing library : libebml v0.7.8 + libmatroska v0.8.1
Video
ID : 1
Format : AVC
Format/Info : Advanced Video Codec
Format profile : [email protected]
Format settings, CABAC : Yes
Format settings, ReFrames : 2 frames
Codec ID : V_MPEG4/ISO/AVC
Duration : 1h 38mn
Bit rate mode : Variable
Bit rate : 15.7 Mbps
Maximum bit rate : 24.0 Mbps
Width : 1 920 pixels
Height : 1 080 pixels
Display aspect ratio : 16:9
Frame rate mode : Constant
Frame rate : 23.976 fps
Color space : YUV
Chroma subsampling : 4:2:0
Bit depth : 8 bits
Scan type : Progressive
Bits/(Pixel*Frame) : 0.315
Stream size : 10.8 GiB (97%)
Default : Yes
Forced : No
Audio
ID : 2
Format : AC-3
Format/Info : Audio Coding 3
Mode extension : CM (complete main)
Format settings, Endianness : Big
Codec ID : A_AC3
Duration : 1h 38mn
Bit rate mode : Constant
Bit rate : 192 Kbps
Channel(s) : 2 channels
Channel positions : Front: L R
Sampling rate : 48.0 KHz
Bit depth : 16 bits
Compression mode : Lossy
Stream size : 135 MiB (1%)
Language : Russian
Default : Yes
Forced : No
Menu
00:00:00.000 : en:(01)00:00:00:000
00:14:07.221 : en:(02)00:14:07:221
00:36:13.545 : en:(03)00:36:13:545
00:58:32.675 : en:(04)00:58:32:675
01:18:37.628 : en:(05)01:18:37:628
01:29:12.805 : en:(06)01:29:12:805

Скриншоты





Последний раз редактировалось: Narik-uz (2015-12-02 17:24), всего редактировалось 2 раз(а)

Создавать темы 28-Ноя-2015 16:20

[Профиль]  [ЛС] 

Grock

Стаж: 6 лет 10 месяцев

Сообщений: 637

Симпатии: 113

Narik-uz, Скриншоты необходимо делать с самого файла, а не брать с кинопоиска, переделывайте, также необходимо добавить тех данные картины
Вот инструкция - Как сделать скриншоты, узнать тех. данные (включая MediaInfo) видео-файла с помощью Media Player Classic?

Создавать темы 02-Дек-2015 10:50

[Профиль]  [ЛС] 
Показать сообщения:    
Ответить на тему

Текущее время: 14-Дек 13:23

Часовой пояс: UTC + 5



Вы не можете начинать темы
Вы не можете отвечать на сообщения
Вы не можете редактировать свои сообщения
Вы не можете удалять свои сообщения
Вы не можете голосовать в опросах
Вы не можете прикреплять файлы к сообщениям
Вы не можете скачивать файлы