Дивергент, глава 2: Инсургент 3D/ Insurgent 3D

Ответить на тему
 

Narik-uz ®

Стаж: 2 года

Сообщений: 4

Симпатии: 5

Дивергент, глава 2: Инсургент 3D/ Insurgent 3D--
Год: 2015
Страна: США
Слоган: «В этом мире пора что-то менять»
Режиссер: Роберт Швентке
В главных ролях: Шейлин Вудли,Тео Джеймс
Кейт Уинслет,Джай Кортни
Энсел Элгорт,Майлз Теллер
Сценарий: Брайан Даффилд, Акива Голдсман, Марк Бомбэк, ...
Продюсер: Люси Фишер, Пуйа Шахбазян, Дуглас Уик, ...
Оператор: Флориан Баллхаус
Композитор: Джозеф Трапанезе
Художник: Алек Хэммонд, Алан Хук, Джей Пелиссье, ...
Монтаж : Стюарт Леви, Нэнси Ричардсон
Жанр: фантастика, триллер, приключения, ... слова
Бюджет: $110 000 000
Сборы в США: $130 179 072
Сборы в мире :+ $166 823 455 = $297 002 527 сборы
Сборы в России: $9 749 740
Премьера (мир): 11 марта 2015, ...
Премьера (РФ): 19 марта 2015, «Централ Партнершип» 3D
Возраст : 12+
Рейтинг MPAA: PG-13
Время: 119 мин. / 01:59
Формат:
Video: MPEG4 Video (H264) 1920x1080 23.976fps [Video]
Audio: Dolby AC3 48000Hz stereo [Audio]
--

Media info

General
Unique ID : 249421087424316963140264831222875081759 (0xBBA4C10CE878C5F6A1181AFCCF76CC1F)
Complete name : K:\3D KINO\Insurgent(2015)3D-halfOU(Ash61)ClearSound.mkv
Format : Matroska
Format version : Version 2
File size : 8.76 GiB
Duration : 1h 58mn
Overall bit rate : 10.5 Mbps
Movie name : Дивергент, глава 2: Инсургент / Insurgent (2015) в 3Д
Encoded date : UTC 2015-07-26 08:56:41
Writing application : mkvmerge v5.8.0 ('No Sleep / Pillow') built on Sep 2 2012 15:37:04
Writing library : libebml v1.2.3 + libmatroska v1.3.0
Video
ID : 1
Format : AVC
Format/Info : Advanced Video Codec
Format profile : [email protected]
Format settings, CABAC : Yes
Format settings, ReFrames : 4 frames
Codec ID : V_MPEG4/ISO/AVC
Duration : 1h 58mn
Bit rate : 9 438 Kbps
Width : 1 920 pixels
Height : 1 080 pixels
Display aspect ratio : 16:9
Frame rate mode : Constant
Frame rate : 23.976 fps
Color space : YUV
Chroma subsampling : 4:2:0
Bit depth : 8 bits
Scan type : Progressive
Bits/(Pixel*Frame) : 0.190
Stream size : 7.84 GiB (90%)
Title : BDRip by Ash61
Writing library : x264 core 138 r2358 9e941d1
Encoding settings : cabac=1 / ref=4 / deblock=1:-3:-3 / analyse=0x3:0x113 / me=umh / subme=10 / psy=1 / psy_rd=1.00:0.00 / mixed_ref=1 / me_range=32 / chroma_me=1 / trellis=2 / 8x8dct=1 / cqm=0 / deadzone=21,11 / fast_pskip=1 / chroma_qp_offset=-2 / threads=12 / lookahead_threads=3 / sliced_threads=0 / nr=0 / decimate=1 / interlaced=0 / bluray_compat=0 / constrained_intra=0 / bframes=12 / b_pyramid=2 / b_adapt=2 / b_bias=0 / direct=3 / weightb=1 / open_gop=0 / weightp=2 / keyint=250 / keyint_min=23 / scenecut=40 / intra_refresh=0 / rc_lookahead=60 / rc=crf / mbtree=1 / crf=15.0 / qcomp=0.70 / qpmin=10 / qpmax=51 / qpstep=4 / vbv_maxrate=40000 / vbv_bufsize=30000 / crf_max=0.0 / nal_hrd=none / frame-packing=4 / ip_ratio=1.40 / aq=1:0.70
Language : English
Default : Yes
Forced : No
Audio #1
ID : 2
Format : AC-3
Format/Info : Audio Coding 3
Mode extension : CM (complete main)
Format settings, Endianness : Big
Codec ID : A_AC3
Duration : 1h 58mn
Bit rate mode : Constant
Bit rate : 256 Kbps
Channel(s) : 2 channels
Channel positions : Front: L R
Sampling rate : 48.0 KHz
Bit depth : 16 bits
Compression mode : Lossy
Stream size : 218 MiB (2%)
Title : Дубляж - "чистый звук"
Language : Russian
Default : Yes
Forced : No
Audio #2
ID : 3
Format : AC-3
Format/Info : Audio Coding 3
Mode extension : CM (complete main)
Format settings, Endianness : Big
Codec ID : A_AC3
Duration : 1h 58mn
Bit rate mode : Constant
Bit rate : 640 Kbps
Channel(s) : 6 channels
Channel positions : Front: L C R, Side: L R, LFE
Sampling rate : 48.0 KHz
Bit depth : 16 bits
Compression mode : Lossy
Stream size : 545 MiB (6%)
Title : Original
Language : English
Default : No
Forced : No
Menu
00:00:00.000 : :1
00:06:10.870 : :2
00:13:34.980 : :3
00:19:34.589 : :4
00:26:39.013 : :5
00:34:22.643 : :6
00:41:13.429 : :7
00:46:34.291 : :8
00:53:09.686 : :9
00:59:29.940 : :10
01:05:59.246 : :11
01:13:34.493 : :12
01:22:57.514 : :13
01:32:04.518 : :14
01:39:08.942 : :15
01:46:38.225 : :16

Скриншоты





Последний раз редактировалось: Narik-uz (2015-12-02 16:16), всего редактировалось 2 раз(а)

Создавать темы 28-Ноя-2015 16:42

[Профиль]  [ЛС] 

Grock

Стаж: 6 лет 9 месяцев

Сообщений: 637

Симпатии: 113

Narik-uz, Скриншоты необходимо делать с самого файла, а не брать с кинопоиска, переделывайте, также необходимо добавить тех данные картины
Вот инструкция - Как сделать скриншоты, узнать тех. данные (включая MediaInfo) видео-файла с помощью Media Player Classic?

Создавать темы 02-Дек-2015 10:51

[Профиль]  [ЛС] 
Показать сообщения:    
Ответить на тему

Текущее время: 24-Ноя 14:05

Часовой пояс: UTC + 5



Вы не можете начинать темы
Вы не можете отвечать на сообщения
Вы не можете редактировать свои сообщения
Вы не можете удалять свои сообщения
Вы не можете голосовать в опросах
Вы не можете прикреплять файлы к сообщениям
Вы не можете скачивать файлы