Между небом и землёй (Михаил Бадикяну, Валерий Харченко) [1975, Музыкальная комедия, TVRip]

Ответить на тему
 

фазилов ®

Стаж: 3 года 6 месяцев

Сообщений: 310

Симпатии: 344

МЕЖДУ НЕБОМ И ЗЕМЛЁЙ
Жанр: Музыкальная комедия
Год выпуска: 1975
Продолжительность: 01:13:32
Режиссёры: Михаил Бадикяну, Валерий Харченко
В ролях: Всеволод Абдулов, Лариса Ерёмина, Виктор Перевалов, Д. Япуджан, Роман Ткачук, Б. Монгуш, Виктор Флишаровский, Анатолий Солоницын, Николай Мерзликин, Семен Морозов, Домника Дариенко, Михаил Бадикяну, Семён Фарада, Людмила Иванова
Описание: Бесшабашному парню Симиону Куку пришло время идти служить в армию. Попав в воздушно-десантные войска под начальство неравнодушного к музыке старшины Петро Головко, который организовывает вокальное трио "Синева", названное так по начальным буквам его участников: молдаванина Симиона, армянина Нерсеса и русского Василия. И вот настал день, когда в военную часть должен приехать новый музыкальный руководитель, оказавшаяся очаровательной девушкой Сашей. Кто бы мог предположить, что после службы Симион вернется домой с симпатичной невестой...
Доп. информация:
В фильме звучат песни в исполнении:
Валерия Ободзинского: «Если девчонка тебя избегает», «Песня о первом прыжке», «Марш десантников» и "Небо моё"
Аллы Пугачёвой: «И кто виноват?»,
ВИА «Ариэль»: «Волки гонят оленя», «Уходишь ты».
Музыкальные темы и аккомпанемент:
Эстрадный оркестр под управлением Виталия Клейнота
ВИА «Ариэль» (в титрах — вокально-инструментальный ансамбль «Ариель»)
В 1975 году саундтрек был издан на диске-гиганте "Песни Александра Зацепина из кинофильма «Между небом и землёй»" (LP, Мелодия — С60-07085-86)[1].

Качество видео: TVRip
Формат видео: AVI
Видео: DivX 5 688x272 25.00fps 1927kbps
Аудио: MPEG Audio 48000Hz stereo 192kbps

MediaInfo

General
Complete name : D:\Мои релизы\Между небом и землёй.avi
Format : AVI
Format/Info : Audio Video Interleave
File size : 1.09 GiB
Duration : 1h 13mn
Overall bit rate : 2 129 Kbps
Director : Rip by Xamasas
Writing application : VirtualDubMod 1.5.10.2 (build 2540/release)
Video
ID : 0
Format : MPEG-4 Visual
Format settings, BVOP : No
Format settings, QPel : No
Format settings, GMC : No warppoints
Format settings, Matrix : Default (H.263)
Codec ID : DX50
Codec ID/Hint : DivX 5
Duration : 1h 13mn
Bit rate : 1 927 Kbps
Width : 688 pixels
Height : 272 pixels
Display aspect ratio : 2.529
Frame rate : 25.000 fps
Color space : YUV
Chroma subsampling : 4:2:0
Bit depth : 8 bits
Scan type : Progressive
Compression mode : Lossy
Bits/(Pixel*Frame) : 0.412
Stream size : 1 014 MiB (91%)
Writing library : DivX 5.2.1 (WaffleDay) (UTC 2004-09-08)
Audio
ID : 1
Format : MPEG Audio
Format version : Version 1
Format profile : Layer 2
Codec ID : 50
Duration : 1h 13mn
Bit rate mode : Constant
Bit rate : 192 Kbps
Channel(s) : 2 channels
Sampling rate : 48.0 KHz
Compression mode : Lossy
Stream size : 101 MiB (9%)
Alignment : Aligned on interleaves
Interleave, duration : 40 ms (1.00 video frame)
Interleave, preload duration : 504 ms

Скриншот c названием фильма

Скриншоты



Последний раз редактировалось: фазилов (2015-11-28 19:36), всего редактировалось 2 раз(а)

Создавать темы 28-Ноя-2015 19:29

[Профиль]  [ЛС] 

фазилов ®

Стаж: 3 года 6 месяцев

Сообщений: 310

Симпатии: 344

ac Возможны перерывы в раздаче в связи с частыми отключениями электроэнергии ac
Фильм на любителя. aa

Создавать темы 28-Ноя-2015 19:31

[Профиль]  [ЛС] 

фазилов ®

Стаж: 3 года 6 месяцев

Сообщений: 310

Симпатии: 344

Модераторы проверьте пож релиз. aa

Создавать темы 29-Ноя-2015 09:36

[Профиль]  [ЛС] 
Показать сообщения:    
Ответить на тему

Текущее время: 23-Авг 17:04

Часовой пояс: UTC + 5



Вы не можете начинать темы
Вы не можете отвечать на сообщения
Вы не можете редактировать свои сообщения
Вы не можете удалять свои сообщения
Вы не можете голосовать в опросах
Вы не можете прикреплять файлы к сообщениям
Вы не можете скачивать файлы