To Love-Ru: Trouble - Darkness 2nd [TV-4] / Любовные неприятности - Тьма 2 [ТВ-4] (Оцуки Ацуси) [01-14 из 14] [HDTVRip 720p] (AnimeVost) 2015

Ответить на тему
 

Dead_Mopo3 ®

Стаж: 5 лет 5 месяцев

Сообщений: 270

Симпатии: 25

Производство: Япония
Жанр: комедия, этти, романтика, школа, фантастика
Тип: ТВ (14 эп.), 25 мин.
Выпуск: c 07.07.2015 по 29.10.2015 Трансляция в 00:00 [ночной сеанс] на BS11 Digital
Студия: Xebec
Режиссёр: Оцуки Ацуси
Снято по манге: To Love-Ru: Trouble - Darkness
Автор оригинала: Ябуки Кэнтаро
Описание: Казалось бы, повышенное женское внимание будет приятно любому здоровому подростку, который, разумеется, питает хоть какой-то интерес к противоположному полу. Увы, не зря говорят, мол, «хорошенького понемножку» – некогда совсем обычный школьник Рито Юуки на собственном опыте убедился, что с девушки приносят с собой проблемы. И что знакомство с инопланетянкой Лалой, принцессой из семьи хозяев Галактики, было лишь началом его личных переживаний.
С тех пор, как Рито узнал о существовании разумной жизни за пределами земли, ему довелось познакомиться с несколькими соотечественницами Лалы и, неожиданно для самого себя, собрать вокруг целый гарем влюбленных в него девиц. А поскольку сам Рито, как подобает благородному, и совершенно неопытному главному герою, о чувствах девушек имеет разве что смутное представление. Вот и приходится ему старательно держать себя в руках и поддерживать с землянками и инопланетянками хорошие отношения, пока непредсказуемые гостьи, чья культура разрешает полигамные браки, задаются вопросом, хватит ли любви их принца на всех его поклонниц.--Качество: HDTVRip
Формат видео: MP4
Video: MPEG4 Video (H264), 1280x720, 23.976fps, 973kbps, 8bit
Audio: AAC, 44100Hz, stereo, 95kbps

MI

General
Complete name                  : E:\Films\To Love Ru Darkness 2\To Love-Ru Trouble - Darkness 2 [01].mp4
Format                         : MPEG-4
Format profile                 : Base Media
Codec ID                       : isom
File size                      : 185 MiB
Duration                       : 24mn 0s
Overall bit rate               : 1 076 Kbps
Writing application            : Lavf56.33.101
Video
ID                             : 1
Format                         : AVC
Format/Info                    : Advanced Video Codec
Format profile                 : [email protected]
Format settings, CABAC         : Yes
Format settings, ReFrames      : 4 frames
Codec ID                       : avc1
Codec ID/Info                  : Advanced Video Coding
Duration                       : 24mn 0s
Bit rate                       : 974 Kbps
Width                          : 1 280 pixels
Height                         : 720 pixels
Display aspect ratio           : 16:9
Frame rate mode                : Constant
Frame rate                     : 23.976 fps
Color space                    : YUV
Chroma subsampling             : 4:2:0
Bit depth                      : 8 bits
Scan type                      : Progressive
Bits/(Pixel*Frame)             : 0.044
Stream size                    : 167 MiB (91%)
Writing library                : x264 core 146 r2 121396c
Encoding settings              : cabac=1 / ref=2 / deblock=1:0:0 / analyse=0x3:0x113 / me=hex / subme=6 / psy=1 / psy_rd=1.00:0.00 / mixed_ref=1 / me_range=16 / chroma_me=1 / trellis=1 / 8x8dct=1 / cqm=0 / deadzone=21,11 / fast_pskip=1 / chroma_qp_offset=-2 / threads=18 / lookahead_threads=3 / sliced_threads=0 / nr=0 / decimate=1 / interlaced=0 / bluray_compat=0 / constrained_intra=0 / bframes=3 / b_pyramid=2 / b_adapt=1 / b_bias=0 / direct=1 / weightb=1 / open_gop=0 / weightp=1 / keyint=250 / keyint_min=23 / scenecut=40 / intra_refresh=0 / rc_lookahead=30 / rc=crf / mbtree=1 / crf=23.0 / qcomp=0.60 / qpmin=0 / qpmax=69 / qpstep=4 / ip_ratio=1.40 / aq=1:1.00
Audio
ID                             : 2
Format                         : AAC
Format/Info                    : Advanced Audio Codec
Format profile                 : LC
Codec ID                       : 40
Duration                       : 24mn 0s
Duration_LastFrame             : 39ms
Bit rate mode                  : Constant
Bit rate                       : 96.0 Kbps
Channel(s)                     : 2 channels
Channel positions              : Front: L R
Sampling rate                  : 44.1 KHz
Compression mode               : Lossy
Stream size                    : 16.5 MiB (9%)

Скриншоты



Последний раз редактировалось: Dead_Mopo3 (2015-11-28 20:12), всего редактировалось 2 раз(а)

Создавать темы 28-Ноя-2015 19:29

[Профиль]  [ЛС] 

Dead_Mopo3 ®

Стаж: 5 лет 5 месяцев

Сообщений: 270

Симпатии: 25

Корочее на раздачу встану ближе к ночи. И еще надо чтоб этот SNIL проверил все...

Создавать темы 28-Ноя-2015 19:45

[Профиль]  [ЛС] 

SNIL

Стаж: 5 лет 10 месяцев

Сообщений: 2624

Симпатии: 341

Dead_Mopo3,

Создавать темы 28-Ноя-2015 20:14

[Профиль]  [ЛС] 

Dead_Mopo3 ®

Стаж: 5 лет 5 месяцев

Сообщений: 270

Симпатии: 25

Качаю БДрип версию всего вышло 4 серии (уже скачал). Как выйдут все то забабахаю релиз. Если нужно (прям горит если :) ) то могу выложить эти 4 серии и по мере выхода аниме обновлять раздачу.

Создавать темы 02-Дек-2015 20:44

[Профиль]  [ЛС] 

daniellya

Стаж: 5 лет 7 месяцев

Сообщений: 338

Симпатии: 29

960844Качаю БДрип версию всего вышло 4 серии (уже скачал). Как выйдут все то забабахаю релиз. Если нужно (прям горит если :) ) то могу выложить эти 4 серии и по мере выхода аниме обновлять раздачу.
Ожидать Rus(ext)+Jap, или хотя бы Rus(int)+Jap, или обломитесь только Rus(int)? )

Создавать темы 02-Дек-2015 20:59

[Профиль]  [ЛС] 

LikeSmile

Стаж: 4 года 6 месяцев

Сообщений: 298

Симпатии: 48

960848Ожидать Rus(ext)+Jap, или хотя бы Rus(int)+Jap, или обломитесь только Rus(int)? )
Лишь бы Агленн

Создавать темы 02-Дек-2015 21:01

[Профиль]  [ЛС] 

Booom

Стаж: 4 года 10 месяцев

Сообщений: 32

Симпатии: 49

Dead_Mopo3, озвучка анидаба есть

Создавать темы 02-Дек-2015 21:07

[Профиль]  [ЛС] 

Dead_Mopo3 ®

Стаж: 5 лет 5 месяцев

Сообщений: 270

Симпатии: 25

MI

General
Unique ID                      : 176162496302991394167148546810491475685 (0x8487A9A4CB0AE503B674E130435896E5)
Complete name                  : E:\зг\Films\To Love-Ru Trouble - Darkness 2nd [BD] [720p]\[W] To Love-Ru Trouble - Darkness 2nd 01 [BDrip 1280x720 x264 Vorbis].mkv
Format                         : Matroska
Format version                 : Version 2
File size                      : 645 MiB
Duration                       : 23mn 42s
Overall bit rate mode          : Variable
Overall bit rate               : 3 807 Kbps
Encoded date                   : UTC 2015-09-30 20:33:13
Writing application            : mkvmerge v2.9.8 ('C'est le bon') built on Aug 13 2009 12:49:06
Writing library                : libebml v0.7.7 + libmatroska v0.8.1
Video
ID                             : 1
Format                         : AVC
Format/Info                    : Advanced Video Codec
Format profile                 : High [email protected]
Format settings, CABAC         : Yes
Format settings, ReFrames      : 9 frames
Codec ID                       : V_MPEG4/ISO/AVC
Duration                       : 23mn 42s
Bit rate                       : 3 475 Kbps
Width                          : 1 280 pixels
Height                         : 720 pixels
Display aspect ratio           : 16:9
Frame rate mode                : Constant
Frame rate                     : 23.976 fps
Color space                    : YUV
Chroma subsampling             : 4:2:0
Bit depth                      : 10 bits
Scan type                      : Progressive
Bits/(Pixel*Frame)             : 0.157
Stream size                    : 589 MiB (91%)
Writing library                : x264 core 132 r2309 3b1f1f7
Encoding settings              : cabac=1 / ref=9 / deblock=1:-2:-2 / analyse=0x3:0x133 / me=umh / subme=9 / psy=1 / psy_rd=0.90:0.00 / mixed_ref=1 / me_range=24 / chroma_me=1 / trellis=2 / 8x8dct=1 / cqm=0 / deadzone=21,11 / fast_pskip=1 / chroma_qp_offset=-2 / threads=12 / lookahead_threads=2 / sliced_threads=0 / nr=0 / decimate=0 / interlaced=0 / bluray_compat=0 / constrained_intra=0 / bframes=8 / b_pyramid=2 / b_adapt=2 / b_bias=0 / direct=1 / weightb=1 / open_gop=0 / weightp=2 / keyint=250 / keyint_min=23 / scenecut=40 / intra_refresh=0 / rc=crf / mbtree=0 / crf=16.0 / qcomp=0.70 / qpmin=9 / qpmax=40 / qpstep=4 / ip_ratio=1.40 / pb_ratio=1.30 / aq=1:0.90
Default                        : No
Forced                         : No
Audio
ID                             : 2
Format                         : Vorbis
Format settings, Floor         : 1
Codec ID                       : A_VORBIS
Duration                       : 23mn 42s
Bit rate mode                  : Variable
Bit rate                       : 256 Kbps
Channel(s)                     : 2 channels
Sampling rate                  : 48.0 KHz
Compression mode               : Lossy
Stream size                    : 43.4 MiB (7%)
Writing library                : libVorbis (Schaufenugget) (20101101 (Schaufenugget))
Language                       : Japanese
Default                        : Yes
Forced                         : No

Фото папки

и озвучка Cuba77.
Субититры только русские. Если найдете мне ссылку то докачаю еще и японские :)

Создавать темы 02-Дек-2015 21:21

[Профиль]  [ЛС] 

daniellya

Стаж: 5 лет 7 месяцев

Сообщений: 338

Симпатии: 29

неплохо )
Японские не надо, ангельский сойдет.
LikeSmile, надо потом местного Агленна попросить переэнкодить хD

Создавать темы 02-Дек-2015 21:28

[Профиль]  [ЛС] 

Dead_Mopo3 ®

Стаж: 5 лет 5 месяцев

Сообщений: 270

Симпатии: 25

нус лить или нет?)

Создавать темы 02-Дек-2015 21:32

[Профиль]  [ЛС] 

LikeSmile

Стаж: 4 года 6 месяцев

Сообщений: 298

Симпатии: 48

daniellya, не, если Агленн рипнул, местный не будет рипать)
Dead_Mopo3, ну лей, помогу с раздачей 1 серии

Создавать темы 02-Дек-2015 22:02

[Профиль]  [ЛС] 

Dead_Mopo3 ®

Стаж: 5 лет 5 месяцев

Сообщений: 270

Симпатии: 25

Вот минут 50 назад написать нельзя было?) щас не успею завтра утром сделаю

Создавать темы 02-Дек-2015 22:19

[Профиль]  [ЛС] 

Dead_Mopo3 ®

Стаж: 5 лет 5 месяцев

Сообщений: 270

Симпатии: 25

Вот зафигачил https://tas-ix.net/viewtopic.php?t=111051

Создавать темы 03-Дек-2015 11:47

[Профиль]  [ЛС] 
Показать сообщения:    
Ответить на тему

Текущее время: 23-Ноя 06:32

Часовой пояс: UTC + 5



Вы не можете начинать темы
Вы не можете отвечать на сообщения
Вы не можете редактировать свои сообщения
Вы не можете удалять свои сообщения
Вы не можете голосовать в опросах
Вы не можете прикреплять файлы к сообщениям
Вы не можете скачивать файлы