Метод / Сезон: Серии: 1-16 из 16 (Юрий Быков) [2015, триллер, криминал, драма, HDTVRip]

Ответить на тему
 

Mamutov ®

Стаж: 4 года 9 месяцев

Сообщений: 255

Симпатии: 144

---Метод--- Год выпуска: 2015
Производство: Продюсерская компания «Среда»
Жанр: триллер, криминал, драма
Продолжительность: 00:47:00
Субтитры: Нет-Режиссёр: Юрий Быков-В ролях: Константин Хабенский, Паулина Андреева, Виталий Кищенко, Александр Цекало, Екатерина Дубакина, Александр Петров (II), Тимофей Трибунцев, Игорь Савочкин, Алексей Серебряков, Юрий Колокольников, Юрий Быков, Ян Цапник, Захар Кабанов, Наталья Унгард, Валентин Самохин, Сергей Беляев, Мария Бородина (II), Юлия Полынская, Олег Васильков, Яна Енжаева, Марина Правкина, Александра Лупашко, Марина Кондратьева (II), Сергей Романович, Александр Чередник, Владимир Яканин, Евгений Кулаков, Вера Панфилова, Николай Ширяев, Роман Смирнов (II), Виктор Цекало, Сергей Сосновский, Алексей Долгушин, Сергей Белов, Иван Добронравов, Арсений Перель, Александра Булычёв-Описание: Главный герой — Родион Меглин — загадочная и неординарная личность, следователь высочайшего уровня, который раскрывает самые сложные убийства. Он привык работать в одиночку, не раскрывая секреты своего метода.
Выпускница юрфака Есеня, получает направление в отделение полиции, в котором служит Меглин, и становится его стажером. У девушки есть личные мотивы для работы с прославленным следователем — мать Есени убили на ее глазах, а отец скрывает важные детали произошедшего, но она не оставляет надежды выйти на след убийцы.
Работа с Меглиным становится для Есени тяжелым испытанием. Профессиональные успехи и странное поведение учителя заставляют девушку задуматься: если Родион так тонко чувствует маньяков и может предсказать их действия, не является ли он сам одним из них?
-Качество: HDTVRip
Формат: MP4
Видео кодек: H.264
Аудио кодек: AAC
Видео: MPEG-4 AVC, 720x404, 25.000 fps, ~1100 Kbps
Аудио: AAC, стерео, 48000 Гц, 140 Kbps
---

MI

General
Format : MPEG-4
Format profile : Base Media
Codec ID : isom
File size : 420 MiB
Duration : 47mn 16s
Overall bit rate : 1 241 Kbps
Writing application : Lavf55.33.100
Video #1
ID : 1
Format : AVC
Format/Info : Advanced Video Codec
Format profile : Main@L3.0
Format settings, CABAC : Yes
Format settings, ReFrames : 3 frames
Codec ID : avc1
Codec ID/Info : Advanced Video Coding
Duration : 47mn 15s
Bit rate mode : Variable
Bit rate : 1 103 Kbps
Width : 720 pixels
Height : 404 pixels
Display aspect ratio : 16:9
Frame rate mode : Constant
Frame rate : 25.000 fps
Resolution : 24 bits
Colorimetry : 4:2:0
Scan type : Progressive
Bits/(Pixel*Frame) : 0.152
Stream size : 371 MiB (88%)
Writing library : x264 core 142
Audio #2
ID : 2
Format : AAC
Format/Info : Advanced Audio Codec
Format version : Version 4
Format profile : LC
Format settings, SBR : No
Codec ID : 40
Duration : 47mn 16s
Bit rate mode : Constant
Bit rate : 140 Kbps
Channel(s) : 2 channels
Channel positions : L R
Sampling rate : 48.0 KHz
Resolution : 16 bits
Stream size : 47.2 MiB (11%)
Language : English
Tagged date : UTC 2015-10-19 22:11:35

Скриншоты





Последний раз редактировалось: Mamutov (2016-02-06 12:39), всего редактировалось 8 раз(а)

Создавать темы 29-Ноя-2015 00:29

[Профиль]  [ЛС] 

Mamutov ®

Стаж: 4 года 9 месяцев

Сообщений: 255

Симпатии: 144

К утру добавлю торрент

Создавать темы 29-Ноя-2015 00:30

[Профиль]  [ЛС] 

Mamutov ®

Стаж: 4 года 9 месяцев

Сообщений: 255

Симпатии: 144

12 серия

Создавать темы 03-Дек-2015 08:37

[Профиль]  [ЛС] 

Mamutov ®

Стаж: 4 года 9 месяцев

Сообщений: 255

Симпатии: 144

13 серия

Создавать темы 09-Дек-2015 08:42

[Профиль]  [ЛС] 

Тимур Турабаев

Стаж: 5 лет 6 месяцев

Сообщений: 44

Симпатии: 1

Ну чё когда 14 серия? товарищи с ОРТ стали только по 1 серии показывать...


Последний раз редактировалось: Тимур Турабаев (2015-12-14 01:40), всего редактировалось 1 раз

Создавать темы 13-Дек-2015 23:25

[Профиль]  [ЛС] 

Mamutov ®

Стаж: 4 года 9 месяцев

Сообщений: 255

Симпатии: 144

Тимур Турабаев,серия вышла но жду в HD качестве
14 серия в качестве WEB-DLRip

Создавать темы 13-Дек-2015 23:48

[Профиль]  [ЛС] 

Тимур Турабаев

Стаж: 5 лет 6 месяцев

Сообщений: 44

Симпатии: 1

Спасибо за Серию...

Создавать темы 15-Дек-2015 21:29

[Профиль]  [ЛС] 

viewty

Стаж: 5 лет 9 месяцев

Сообщений: 17

почему не раздаете? у меня 60% только скачалось(

Создавать темы 19-Дек-2015 01:11

[Профиль]  [ЛС] 

Тимур Турабаев

Стаж: 5 лет 6 месяцев

Сообщений: 44

Симпатии: 1

Когда 15-16 серии?

Создавать темы 21-Дек-2015 01:45

[Профиль]  [ЛС] 

Mamutov ®

Стаж: 4 года 9 месяцев

Сообщений: 255

Симпатии: 144

Тимур Турабаев, к утру

Создавать темы 21-Дек-2015 13:14

[Профиль]  [ЛС] 

Тимур Турабаев

Стаж: 5 лет 6 месяцев

Сообщений: 44

Симпатии: 1

963090Тимур Турабаев, к утру
Отлично!!!

Создавать темы 21-Дек-2015 20:49

[Профиль]  [ЛС] 

Mamutov ®

Стаж: 4 года 9 месяцев

Сообщений: 255

Симпатии: 144

15-16 серий в качестве WEB-DLRip
конец сезона

Создавать темы 22-Дек-2015 09:16

[Профиль]  [ЛС] 

Тимур Турабаев

Стаж: 5 лет 6 месяцев

Сообщений: 44

Симпатии: 1

Жаль Меглина... Блин классный фильм... Концовку конечно сделали тоже... Заинтриговали так что жди Год теперь....

Создавать темы 23-Дек-2015 00:55

[Профиль]  [ЛС] 
Показать сообщения:    
Ответить на тему

Текущее время: 21-Окт 04:22

Часовой пояс: UTC + 5



Вы не можете начинать темы
Вы не можете отвечать на сообщения
Вы не можете редактировать свои сообщения
Вы не можете удалять свои сообщения
Вы не можете голосовать в опросах
Вы не можете прикреплять файлы к сообщениям
Вы не можете скачивать файлы