Need for Speed: Жажда скорости 3D/Need for Speed 3D (2014,боевик, триллер, драма....)

Ответить на тему
 

Narik-uz ®

Стаж: 2 года

Сообщений: 4

Симпатии: 5


Need for Speed: Жажда скорости 3D/Need for Speed 3D
--

Год: 2014
Страна: США, Великобритания, Франция, Филиппины
Слоган: «Тормоза придумал трус»
Режиссер: Скотт Во
Главных ролях:
Аарон Пол
Доминик Купер,Имоджен Путс
Дакота Джонсон
Сценарий: Джордж Гэйтинс, Джон Гэйтинс
Продюсер: Джон Гэйтинс, Патрик О’Брайэн, Марк Суриан, ...
Оператор: Шейн Хёрлбат
Композитор: Нэйтан Ферст
Художник: Джон Хатмэн, Кристофер Р. ДеМури, Майкл Е. Голдман, ...
Монтаж: Пол Рубелл, Скотт Во
Жанр: боевик, триллер, драма, криминал, ...
Бюджет: $66 000 000
Сборы в США: $43 577 636
Сборы в мире: + $159 700 000 = $203 277 636 сборы
Сборы в России: $13 802 731
Зрители: Китай 10.4 млн, Россия 1.96 млн, Мексика 977.2 тыс., ...
Премьера (мир): 12 марта 2014, ...
Премьера (РФ): 13 марта 2014, «WDSSPR» 3D
Релиз на Blu-Ray: 5 августа 2014, «Уолт Дисней Компани СНГ», ...
Релиз на DVD: 5 августа 2014, «Уолт Дисней Компани СНГ», ...
Возраст: +12
Рейтинг MPAA: PG-13
Время: 130 мин/02:10
Формат:
Video: MPEG4 Video (H264) 1920x1080 23.976fps [Video]
Audio: Dolby AC3 48000Hz 6ch [Audio]
Subtitle: UTF-8 [Subtitle]
--

Media info

General
Unique ID : 248602691917912887301371835315804843475 (0xBB072309634ECDF7904EB5196E722DD3)
Complete name : K:\3D KINO\Жажда скорости 3D 2014\need for speed 3d hou.mkv
Format : Matroska
Format version : Version 2
File size : 12.1 GiB
Duration : 2h 10mn
Overall bit rate mode : Variable
Overall bit rate : 13.2 Mbps
Movie name : Need for Speed
Encoded date : UTC 2014-07-19 06:36:18
Writing application : mkvmerge v3.3.0 ('Language') built on Mar 24 2010 14:59:24
Writing library : libebml v0.8.0 + libmatroska v0.9.0
Video
ID : 1
Format : AVC
Format/Info : Advanced Video Codec
Format profile : High@L4.1
Format settings, CABAC : Yes
Format settings, ReFrames : 3 frames
Codec ID : V_MPEG4/ISO/AVC
Duration : 2h 10mn
Bit rate mode : Variable
Bit rate : 12.0 Mbps
Maximum bit rate : 35.0 Mbps
Width : 1 920 pixels
Height : 1 080 pixels
Display aspect ratio : 16:9
Frame rate mode : Constant
Frame rate : 23.976 fps
Color space : YUV
Chroma subsampling : 4:2:0
Bit depth : 8 bits
Scan type : Progressive
Bits/(Pixel*Frame) : 0.241
Stream size : 10.7 GiB (88%)
Title : Need for Speed (2014) - Encoded by Immortel
Writing library : x264 core 130 r2273 b3065e6
Encoding settings : cabac=1 / ref=2 / deblock=1:-2:-2 / analyse=0x3:0x133 / me=umh / subme=9 / psy=1 / psy_rd=1.00:0.25 / mixed_ref=1 / me_range=24 / chroma_me=1 / trellis=1 / 8x8dct=1 / cqm=0 / deadzone=6,6 / fast_pskip=0 / chroma_qp_offset=-4 / threads=6 / lookahead_threads=1 / sliced_threads=0 / nr=0 / decimate=0 / interlaced=0 / bluray_compat=0 / constrained_intra=0 / bframes=3 / b_pyramid=1 / b_adapt=2 / b_bias=0 / direct=3 / weightb=1 / open_gop=0 / weightp=1 / keyint=48 / keyint_min=2 / scenecut=40 / intra_refresh=0 / rc_lookahead=48 / rc=abr / mbtree=0 / bitrate=12000 / ratetol=1000000000.0 / qcomp=0.80 / qpmin=0 / qpmax=69 / qpstep=4 / vbv_maxrate=35000 / vbv_bufsize=30000 / nal_hrd=vbr / ip_ratio=1.10 / pb_ratio=1.10 / aq=2:0.50
Default : Yes
Forced : No
Color primaries : BT.709
Transfer characteristics : BT.709
Matrix coefficients : BT.709
Audio #1
ID : 2
Format : AC-3
Format/Info : Audio Coding 3
Mode extension : CM (complete main)
Format settings, Endianness : Big
Codec ID : A_AC3
Duration : 2h 10mn
Bit rate mode : Constant
Bit rate : 640 Kbps
Channel(s) : 6 channels
Channel positions : Front: L C R, Side: L R, LFE
Sampling rate : 48.0 KHz
Bit depth : 16 bits
Compression mode : Lossy
Stream size : 599 MiB (5%)
Title : Dubbing
Language : Russian
Default : Yes
Forced : No
Audio #2
ID : 3
Format : AC-3
Format/Info : Audio Coding 3
Mode extension : CM (complete main)
Format settings, Endianness : Big
Codec ID : A_AC3
Duration : 2h 10mn
Bit rate mode : Constant
Bit rate : 640 Kbps
Channel(s) : 6 channels
Channel positions : Front: L C R, Side: L R, LFE
Sampling rate : 48.0 KHz
Bit depth : 16 bits
Compression mode : Lossy
Stream size : 599 MiB (5%)
Title : Original
Language : English
Default : No
Forced : No
Text #1
ID : 4
Format : UTF-8
Codec ID : S_TEXT/UTF8
Codec ID/Info : UTF-8 Plain Text
Title : Forced
Language : Russian
Default : Yes
Forced : No
Text #2
ID : 5
Format : UTF-8
Codec ID : S_TEXT/UTF8
Codec ID/Info : UTF-8 Plain Text
Language : Russian
Default : No
Forced : No
Text #3
ID : 6
Format : UTF-8
Codec ID : S_TEXT/UTF8
Codec ID/Info : UTF-8 Plain Text
Title : SDH
Language : English
Default : No
Forced : No
Menu
00:00:00.000 : en:00:00:00.000
00:03:54.734 : en:00:03:54.734
00:07:49.761 : en:00:07:49.761
00:14:28.034 : en:00:14:28.034
00:20:43.534 : en:00:20:43.534
00:26:18.160 : en:00:26:18.160
00:28:45.974 : en:00:28:45.974
00:37:46.473 : en:00:37:46.473
00:42:07.608 : en:00:42:07.608
00:50:33.614 : en:00:50:33.614
00:56:00.482 : en:00:56:00.482
01:05:09.864 : en:01:05:09.864
01:12:09.325 : en:01:12:09.325
01:18:21.030 : en:01:18:21.030
01:25:07.144 : en:01:25:07.144
01:32:55.653 : en:01:32:55.653
01:36:38.084 : en:01:36:38.084
01:39:49.442 : en:01:39:49.442
01:49:47.873 : en:01:49:47.873
01:55:41.685 : en:01:55:41.685
02:02:22.752 : en:02:02:22.752

Скриншоты





Последний раз редактировалось: Narik-uz (2015-12-07 16:35), всего редактировалось 3 раз(а)

Создавать темы 29-Ноя-2015 13:43

[Профиль]  [ЛС] 

Grock

Стаж: 6 лет 9 месяцев

Сообщений: 637

Симпатии: 113

Narik-uz, Скриншоты необходимо делать с самого файла, а не брать с кинопоиска, переделывайте, также необходимо добавить тех данные картины
Вот инструкция - Как сделать скриншоты, узнать тех. данные (включая MediaInfo) видео-файла с помощью Media Player Classic?

Создавать темы 02-Дек-2015 10:50

[Профиль]  [ЛС] 
Показать сообщения:    
Ответить на тему

Текущее время: 25-Ноя 01:37

Часовой пояс: UTC + 5



Вы не можете начинать темы
Вы не можете отвечать на сообщения
Вы не можете редактировать свои сообщения
Вы не можете удалять свои сообщения
Вы не можете голосовать в опросах
Вы не можете прикреплять файлы к сообщениям
Вы не можете скачивать файлы