Безумный Макс: Дорога ярости 3d/ Mad Max: Fury Road 3D (2015)

Ответить на тему
 

Narik-uz ®

Стаж: 1 год 11 месяцев

Сообщений: 4

Симпатии: 5

Безумный Макс: Дорога ярости/Mad Max: Fury Road--
Год: 2015
Страна: Австралия, США
Слоган: «Какой чудесный день»
Режиссер: Джордж Миллер
Главных ролях:
Том Харди
Шарлиз Терон
Николас Холт
Хью Кияс-Бёрн
Райли Кио
Сценарий:
Джордж Миллер, Брендан МакКарти, Ник Латурис
Продюсер:
Джордж Миллер, Даг Митчелл, Брюс Берман, ...
Оператор: Джон Сил
Композитор: Джанки Экс-Эл
Художник:
Колин Гибсон, Шира Хокман, Джасинта Леонг, ...
Монтаж: Маргарет Сиксел
Жанр:
боевик, фантастика, приключения, ...
Бюджет: $150 000 000
Сборы в США: $153 636 354
Сборы в мире: + $221 100 000 = $374 736 354 сборы
Сборы в России: $12 530 859
Зрители: Россия 2.43 млн, Норвегия 140.7 тыс.
Премьера (мир): 7 мая 2015, ...
Премьера (РФ): 14 мая 2015, «Каро-Премьер» 3D
Релиз на Blu-Ray: 17 сентября 2015, «CP Дистрибуция», ...
Релиз на DVD 17: сентября 2015, «CP Дистрибуция», ...
Возраст: +16
Рейтинг MPAA: R
Время: 120 мин. / 02:00
Формат:
Video: MPEG4 Video (H264) 1920x1080 23.976fps [Video]
Audio: Dolby AC3 48000Hz 6ch [Audio]
Text [Subtitle]
--

Media info

General
Unique ID : 249211606907899692765940715633952847869 (0xBB7C68DD1238CF9EBE60B83365BE77FD)
Complete name : K:\3D KINO\3D - Безумный Макс (2015).mkv
Format : Matroska
Format version : Version 2
File size : 13.9 GiB
Duration : 2h 0mn
Overall bit rate : 16.5 Mbps
Movie name : BD_VOLUME.Title0
Encoded date : UTC 2015-08-17 14:43:56
Writing application : DVDFab 9.2.0.2
Writing library : libebml v0.7.8 + libmatroska v0.8.1
Video
ID : 1
Format : AVC
Format/Info : Advanced Video Codec
Format profile : [email protected]
Format settings, CABAC : Yes
Format settings, ReFrames : 2 frames
Codec ID : V_MPEG4/ISO/AVC
Duration : 2h 0mn
Bit rate : 14.9 Mbps
Width : 1 920 pixels
Height : 1 080 pixels
Display aspect ratio : 16:9
Frame rate mode : Constant
Frame rate : 23.976 fps
Color space : YUV
Chroma subsampling : 4:2:0
Bit depth : 8 bits
Scan type : Progressive
Bits/(Pixel*Frame) : 0.300
Stream size : 12.5 GiB (90%)
Default : Yes
Forced : No
Audio #1
ID : 2
Format : AC-3
Format/Info : Audio Coding 3
Mode extension : CM (complete main)
Format settings, Endianness : Big
Codec ID : A_AC3
Duration : 2h 0mn
Bit rate mode : Constant
Bit rate : 640 Kbps
Channel(s) : 6 channels
Channel positions : Front: L C R, Side: L R, LFE
Sampling rate : 48.0 KHz
Bit depth : 16 bits
Compression mode : Lossy
Stream size : 551 MiB (4%)
Language : Russian
Default : Yes
Forced : No
Audio #2
ID : 3
Format : AC-3
Format/Info : Audio Coding 3
Mode extension : CM (complete main)
Format settings, Endianness : Big
Codec ID : A_AC3
Duration : 2h 0mn
Bit rate mode : Constant
Bit rate : 640 Kbps
Channel(s) : 6 channels
Channel positions : Front: L C R, Side: L R, LFE
Sampling rate : 48.0 KHz
Bit depth : 16 bits
Compression mode : Lossy
Stream size : 551 MiB (4%)
Language : English
Default : No
Forced : No
Text #1
ID : 4
Format : PGS
Codec ID : S_HDMV/PGS
Codec ID/Info : The same subtitle format used on BDs/HD-DVDs
Language : English
Default : No
Forced : No
Text #2
ID : 5
Format : PGS
Codec ID : S_HDMV/PGS
Codec ID/Info : The same subtitle format used on BDs/HD-DVDs
Language : Russian
Default : No
Forced : No
Menu
00:00:00.000 : en:(01)00:00:00:000
00:10:42.475 : en:(02)00:10:42:475
00:19:06.435 : en:(03)00:19:06:435
00:30:12.309 : en:(04)00:30:12:309
00:42:55.614 : en:(05)00:42:55:614
00:49:33.344 : en:(06)00:49:33:344
00:59:55.173 : en:(07)00:59:55:173
01:13:02.542 : en:(08)01:13:02:542
01:22:08.921 : en:(09)01:22:08:921
01:30:02.729 : en:(10)01:30:02:729
01:40:39.867 : en:(11)01:40:39:867
01:49:12.546 : en:(12)01:49:12:546
01:53:06.279 : en:(13)01:53:06:279

Скриншоты





Последний раз редактировалось: Narik-uz (2015-12-02 17:37), всего редактировалось 2 раз(а)

Создавать темы 29-Ноя-2015 14:35

[Профиль]  [ЛС] 

Grock

Стаж: 6 лет 8 месяцев

Сообщений: 637

Симпатии: 113

Narik-uz, Скриншоты необходимо делать с самого файла, а не брать с кинопоиска, переделывайте, также необходимо добавить тех данные картины
Вот инструкция - Как сделать скриншоты, узнать тех. данные (включая MediaInfo) видео-файла с помощью Media Player Classic?

Создавать темы 02-Дек-2015 10:50

[Профиль]  [ЛС] 

bazikula

Стаж: 2 года 1 месяц

Сообщений: 2

Симпатии: 1

скорость вроде есть,но не качает в торренте!что можно сделать?

Создавать темы 14-Фев-2016 20:06

[Профиль]  [ЛС] 

killer_said

Стаж: 6 лет 8 месяцев

Сообщений: 183

Симпатии: 54

Что за фильм, где описание

Создавать темы 22-Фев-2016 13:22

[Профиль]  [ЛС] 

pahey

Стаж: 5 лет 8 месяцев

Сообщений: 10

Симпатии: 4

за месяц никто так и не начал раздавать(( жду

Создавать темы 04-Апр-2016 10:57

[Профиль]  [ЛС] 

Muzaffar Husanov

Стаж: 3 года 10 месяцев

Сообщений: 6

Встанте на раздачу

Создавать темы 18-Июн-2016 18:24

[Профиль]  [ЛС] 

Muzaffar Husanov

Стаж: 3 года 10 месяцев

Сообщений: 6

ВСТВНТЕ НА РАЗДАЧУ!!

Создавать темы 04-Авг-2016 18:44

[Профиль]  [ЛС] 

odil

Стаж: 5 лет 1 месяц

Сообщений: 20

Симпатии: 6

дайте раздачу докочаю пожалуйста кто нибудь

Создавать темы 30-Сен-2016 23:17

[Профиль]  [ЛС] 
Показать сообщения:    
Ответить на тему

Текущее время: 17-Окт 21:57

Часовой пояс: UTC + 5



Вы не можете начинать темы
Вы не можете отвечать на сообщения
Вы не можете редактировать свои сообщения
Вы не можете удалять свои сообщения
Вы не можете голосовать в опросах
Вы не можете прикреплять файлы к сообщениям
Вы не можете скачивать файлы