Skyfall / Координаты «Скайфолл» (Сэм Мендес / Sam Mendes) [2012, Великобритания, США, боевик, триллер, криминал, приключения, BDRip-AVC] (Dub) (Original Eng)

Ответить на тему
 

mcken30 ®

Стаж: 4 года 9 месяцев

Сообщений: 6

Симпатии: 2

Skyfall / Координаты «Скайфолл»
Страна: Великобритания, США
Жанр: боевик, триллер, криминал, приключения
Год выпуска: 2012
Продолжительность: 02:23:09
Перевод: Профессиональный (дублированный)
Cубтитры: русские, английские
Оригинальная аудиодорожка: английский
Режиссер: Сэм Мендес / Sam Mendes
В ролях: Дэниэл Крэйг, Хавьер Бардем, Джуди Денч, Рэйф Файнс, Бен Уишоу, Наоми Харрис, Альберт Финни, Беренис Марло, Хелен МакКрори, Тония Сотиропулу, Рори Киннер, Ола Рапас
Описание: Лояльность Бонда своей начальнице М под угрозой со стороны ее прошлого, которое внезапно даст о себе знать. MI6 подвергается нападению, и агент 007 должен ликвидировать угрозу, несмотря на цену, которую придется заплатить.
Доп. информация:
IMDb: 7.9/10
Kinopoisk: 7.693/10
Качество видео: BDRip-AVC
Формат видео: MKV
Видео: H.264
Видео: 1280x536 (2.39:1), 3591 kbps, 23,976 fps
Аудио: Russian, AC3, 6ch, 48 kHz, 448 kbps (Дубляж)
Аудио 2: English, AC3, 6ch, 48 kHz, 448 kbps (Оригинал)
Субтитры №1: Russian, SRT, форсированные
Субтитры №2: Russian, SRT, BD
Субтитры №3: Russian, SRT, Groby
Субтитры №4: English, SRT
Субтитры №5: English, SRT, SDH
Субтитры №6: Russian, SRT, комментарии режиссера Сэма Мендеса
Субтитры №7: Russian, SRT, комментарии художника Дэнниса Гасснера и др.
Субтитры №8: English, SRT, комментарии режиссера Сэма Мендеса
Субтитры №9: English, SRT, комментарии художника Дэнниса Гасснера и др.

MediaInfo

Format : Matroska
Format version : Version 4 / Version 2
File size : 4.38 GiB
Duration : 2h 23mn
Overall bit rate : 4 377 Kbps
Movie name : Skyfall (2012) BDRip
Encoded date : UTC 2013-02-03 18:26:01
Writing application : mkvmerge v6.0.0 ('Coming Up For Air') built on Jan 20 2013 09:52:00
Writing library : libebml v1.3.0 + libmatroska v1.4.0
Attachment : Yes
Video
ID : 1
Format : AVC
Format/Info : Advanced Video Codec
Format profile : [email protected]
Format settings, CABAC : Yes
Format settings, ReFrames : 12 frames
Codec ID : V_MPEG4/ISO/AVC
Duration : 2h 23mn
Bit rate : 3 394 Kbps
Width : 1 280 pixels
Height : 536 pixels
Display aspect ratio : 2.40:1
Frame rate mode : Constant
Frame rate : 23.976 fps
Color space : YUV
Chroma subsampling : 4:2:0
Bit depth : 8 bits
Scan type : Progressive
Bits/(Pixel*Frame) : 0.206
Stream size : 3.39 GiB (78%)
Writing library : x264 core 129 r2245kMod bc13772
Encoding settings : cabac=1 / ref=12 / deblock=1:-3:-2 / analyse=0x3:0x133 / me=umh / subme=11 / psy=1 / fade_compensate=0.00 / psy_rd=1.05:0.03 / mixed_ref=1 / me_range=32 / chroma_me=1 / trellis=2 / 8x8dct=1 / cqm=0 / deadzone=21,11 / fast_pskip=0 / chroma_qp_offset=-3 / threads=6 / lookahead_threads=1 / sliced_threads=0 / nr=0 / decimate=1 / interlaced=0 / bluray_compat=0 / constrained_intra=0 / bframes=15 / b_pyramid=2 / b_adapt=2 / b_bias=0 / direct=1 / weightb=1 / open_gop=0 / weightp=2 / keyint=250 / keyint_min=23 / scenecut=40 / intra_refresh=0 / rc_lookahead=40 / rc=crf / mbtree=0 / crf=17.5000 / qcomp=0.65 / qpmin=0 / qpmax=69 / qpstep=4 / vbv_maxrate=50000 / vbv_bufsize=62500 / crf_max=0.0 / nal_hrd=none / ip_ratio=1.40 / pb_ratio=1.20 / aq=2:0.85
Language : English
Default : Yes
Forced : No
Matrix coefficients : BT.709
Audio #1
ID : 2
Format : AC-3
Format/Info : Audio Coding 3
Mode extension : CM (complete main)
Format settings, Endianness : Big
Codec ID : A_AC3
Duration : 2h 23mn
Bit rate mode : Constant
Bit rate : 448 Kbps
Channel(s) : 6 channels
Channel positions : Front: L C R, Side: L R, LFE
Sampling rate : 48.0 KHz
Bit depth : 16 bits
Compression mode : Lossy
Stream size : 459 MiB (10%)
Title : Dub
Language : Russian
Default : Yes
Forced : No
Audio #2
ID : 3
Format : AC-3
Format/Info : Audio Coding 3
Mode extension : CM (complete main)
Format settings, Endianness : Big
Codec ID : A_AC3
Duration : 2h 23mn
Bit rate mode : Constant
Bit rate : 448 Kbps
Channel(s) : 6 channels
Channel positions : Front: L C R, Side: L R, LFE
Sampling rate : 48.0 KHz
Bit depth : 16 bits
Compression mode : Lossy
Stream size : 459 MiB (10%)
Title : Original
Language : English
Default : No
Forced : No
Text #1
ID : 4
Format : UTF-8
Codec ID : S_TEXT/UTF8
Codec ID/Info : UTF-8 Plain Text
Title : Forced
Language : Russian
Default : Yes
Forced : No
Text #2
ID : 5
Format : UTF-8
Codec ID : S_TEXT/UTF8
Codec ID/Info : UTF-8 Plain Text
Title : BD
Language : Russian
Default : No
Forced : No
Text #3
ID : 6
Format : UTF-8
Codec ID : S_TEXT/UTF8
Codec ID/Info : UTF-8 Plain Text
Title : Groby
Language : Russian
Default : No
Forced : No
Text #4
ID : 7
Format : UTF-8
Codec ID : S_TEXT/UTF8
Codec ID/Info : UTF-8 Plain Text
Language : English
Default : No
Forced : No
Text #5
ID : 8
Format : UTF-8
Codec ID : S_TEXT/UTF8
Codec ID/Info : UTF-8 Plain Text
Title : SDH
Language : English
Default : No
Forced : No
Text #6
ID : 9
Format : UTF-8
Codec ID : S_TEXT/UTF8
Codec ID/Info : UTF-8 Plain Text
Title : Commentary (Sam Mendes)
Language : Russian
Default : No
Forced : No
Text #7
ID : 10
Format : UTF-8
Codec ID : S_TEXT/UTF8
Codec ID/Info : UTF-8 Plain Text
Title : Commentary (Dennis Gassner)
Language : Russian
Default : No
Forced : No
Text #8
ID : 11
Format : UTF-8
Codec ID : S_TEXT/UTF8
Codec ID/Info : UTF-8 Plain Text
Title : Commentary (Sam Mendes)
Language : English
Default : No
Forced : No
Text #9
ID : 12
Format : UTF-8
Codec ID : S_TEXT/UTF8
Codec ID/Info : UTF-8 Plain Text
Title : Commentary (Sam Mendes)
Language : English
Default : No
Forced : No
Menu
00:00:00.000 : en:Opening Credits
00:04:28.476 : en:Ghost Ship
00:07:32.452 : en:Into the Wreck
00:12:47.391 : en:The Keldysh
00:16:47.464 : en:The Woman in the Picture
00:21:37.337 : en:Old Rose Arrives
00:25:00.290 : en:Reflections of the Past
00:29:25.221 : en:Back to Titanic
00:35:06.145 : en:A Lucky Hand
00:38:27.763 : en:Leaving Port
00:41:24.440 : en:Cherbourg
00:46:22.905 : en:Ode to Titanic
00:50:48.628 : en:First Glance
00:54:53.290 : en:"You Jump, I Jump"
00:59:38.741 : en:An Invitation to Dinner
01:05:14.243 : en:The Heart of the Ocean
01:10:16.670 : en:Sketches and Stories
01:17:09.750 : en:Learning New Things
01:20:55.058 : en:Dinner with Jack
01:26:10.373 : en:A Real Party
01:31:49.754 : en:A Cold Breakfast
01:37:04.527 : en:Sunday Prayer
01:40:49.084 : en:"They've Got You Trapped"
01:43:45.969 : en:Flying
01:45:54.723 : en:"That Was the Last Time..."
01:52:10.598 : en:The Drawing
01:54:45.795 : en:"My Heart Was Pounding"
01:58:13.044 : en:"Find Her"
02:02:49.111 : en:Two Souls United
02:09:38.645 : en:"Iceberg Right Ahead!"
02:14:49.623 : en:An Honest Thief
02:17:46.424 : en:A Mathematical Certainty

Скриншот c названием фильма

Скриншоты




Создавать темы 30-Ноя-2015 13:51

[Профиль]  [ЛС] 

Bexruz9997

Стаж: 5 лет 2 месяца

Сообщений: 40

Симпатии: 6

пожалуйста, дайте скорость

Создавать темы 13-Июл-2016 00:54

[Профиль]  [ЛС] 
Показать сообщения:    
Ответить на тему

Текущее время: 23-Авг 07:16

Часовой пояс: UTC + 5



Вы не можете начинать темы
Вы не можете отвечать на сообщения
Вы не можете редактировать свои сообщения
Вы не можете удалять свои сообщения
Вы не можете голосовать в опросах
Вы не можете прикреплять файлы к сообщениям
Вы не можете скачивать файлы