Ватиканские записи / The Vatican Tapes (Марк Невелдайн) [2015, США, Ужасы, триллер, HDRip-AVC] [Лицензия / iTunes] [Original Eng]

Ответить на тему
 

ruhal ®

Стаж: 2 года 5 месяцев

Сообщений: 1181

Симпатии: 1836

- -Ватиканские записи / The Vatican Tapes- - Страна: США
Жанр: Ужасы, триллер
Год выпуска: 2015
Продолжительность: 01:30:52-Перевод: Профессиональный (дублированный) [iTunes]
Cубтитры: нет
Оригинальная аудиодорожка: английский-Режиссер: Марк Невелдайн-В ролях: Кэтлин Робертсон, Майкл Пенья, Элисон Ломан, Джимон Хонсу,
Дугрей Скотт, Майкл Паре, Джон Патрик Амедори, Оливия Тейлор Дадли, Темина Санни, Дэниэл Бернхард-Описание: Анжела Холмс жила обычной жизнью, пока внезапно не начала
оказывать разрушительное воздействие на окружающих, причиняя людям серьезные,
иногда смертельные травмы. Местный священник, отец Лозано, уверен в ее одержимости.
Приглашенные для проведения сеанса экзорцизма кардиналы из
Ватикана сталкиваются с древней сатанинской силой, большей, чем они могли себе представить.-Качество видео: HDRip-AVC
Формат видео: MKV
Видео: MPEG4 Video (H264) 1024x576 23.976fps
Аудио: Dolby AC3 48000Hz stereo 384kbps [A: Russian [rus]
Аудио 2: Dolby AC3 48000Hz 6ch 384kbps [A: English [eng]
-

MediaInfo

General
Unique ID : 218723883495766215649967155993104360177 (0xA48CB00BA594F5599F377A86CE4422F1)
Complete name : E:\Films\The.Vatican.Tapes.2015.D.Eng.HDRip-AVC.mkv
Format : Matroska
Format version : Version 4 / Version 2
File size : 1.64 GiB
Duration : 1h 30mn
Overall bit rate : 2 589 Kbps
Encoded date : UTC 2015-11-30 04:24:09
Writing application : mkvmerge v8.3.0 ('Over the Horizon') 64bit
Writing library : libebml v1.3.1 + libmatroska v1.4.2
DURATION : 01:30:52.320000000
NUMBER_OF_FRAMES : 170385
NUMBER_OF_BYTES : 261711360
_STATISTICS_WRITING_APP : mkvmerge v8.3.0 ('Over the Horizon') 64bit
_STATISTICS_WRITING_DATE_UTC : 2015-11-30 04:24:09
_STATISTICS_TAGS : BPS DURATION NUMBER_OF_FRAMES NUMBER_OF_BYTES
Video
ID : 1
Format : AVC
Format/Info : Advanced Video Codec
Format profile : [email protected]
Format settings, CABAC : Yes
Format settings, ReFrames : 10 frames
Codec ID : V_MPEG4/ISO/AVC
Duration : 1h 30mn
Bit rate : 1 822 Kbps
Width : 1 024 pixels
Height : 576 pixels
Display aspect ratio : 16:9
Frame rate mode : Constant
Frame rate : 23.976 fps
Color space : YUV
Chroma subsampling : 4:2:0
Bit depth : 8 bits
Scan type : Progressive
Bits/(Pixel*Frame) : 0.129
Stream size : 1.12 GiB (68%)
Title : Enigma
Writing library : x264 core 133 r2334 a3ac64b
Encoding settings : cabac=1 / ref=10 / deblock=1:-2:-2 / analyse=0x3:0x113 / me=umh / subme=10 / psy=1 / psy_rd=1.05:0.15 / mixed_ref=1 / me_range=32 / chroma_me=1 / trellis=2 / 8x8dct=1 / cqm=0 / deadzone=21,11 / fast_pskip=0 / chroma_qp_offset=-3 / threads=12 / lookahead_threads=2 / sliced_threads=0 / nr=0 / decimate=0 / interlaced=0 / bluray_compat=0 / constrained_intra=0 / bframes=8 / b_pyramid=2 / b_adapt=2 / b_bias=0 / direct=3 / weightb=1 / open_gop=0 / weightp=2 / keyint=240 / keyint_min=23 / scenecut=40 / intra_refresh=0 / rc_lookahead=40 / rc=2pass / mbtree=0 / bitrate=1822 / ratetol=1.0 / qcomp=0.60 / qpmin=0 / qpmax=51 / qpstep=4 / cplxblur=20.0 / qblur=0.5 / vbv_maxrate=50000 / vbv_bufsize=62500 / nal_hrd=none / ip_ratio=1.40 / pb_ratio=1.30 / aq=1:1.00
Language : English
Default : Yes
Forced : No
Color range : Limited
Color primaries : BT.709
Transfer characteristics : BT.709
Matrix coefficients : BT.709
DURATION : 01:30:52.280000000
NUMBER_OF_FRAMES : 130724
NUMBER_OF_BYTES : 1239448956
_STATISTICS_WRITING_APP : mkvmerge v8.3.0 ('Over the Horizon') 64bit
_STATISTICS_WRITING_DATE_UTC : 2015-11-30 04:24:09
_STATISTICS_TAGS : BPS DURATION NUMBER_OF_FRAMES NUMBER_OF_BYTES
Audio #1
ID : 2
Format : AC-3
Format/Info : Audio Coding 3
Mode extension : CM (complete main)
Format settings, Endianness : Big
Codec ID : A_AC3
Duration : 1h 30mn
Bit rate mode : Constant
Bit rate : 384 Kbps
Channel(s) : 2 channels
Channel positions : Front: L R
Sampling rate : 48.0 KHz
Compression mode : Lossy
Stream size : 250 MiB (15%)
Language : Russian
Default : Yes
Forced : No
Audio #2
ID : 3
Format : AC-3
Format/Info : Audio Coding 3
Mode extension : CM (complete main)
Format settings, Endianness : Big
Codec ID : A_AC3
Duration : 1h 30mn
Bit rate mode : Constant
Bit rate : 384 Kbps
Channel(s) : 6 channels
Channel positions : Front: L C R, Side: L R, LFE
Sampling rate : 48.0 KHz
Compression mode : Lossy
Stream size : 250 MiB (15%)
Language : English
Default : No
Forced : No
Menu
00:00:00.000 : en:00:00:00.000
00:02:53.173 : en:00:02:53.173
00:11:38.072 : en:00:11:38.072
00:18:02.123 : en:00:18:02.123
00:23:52.347 : en:00:23:52.347
00:26:37.179 : en:00:26:37.179
00:32:26.987 : en:00:32:26.987
00:39:03.424 : en:00:39:03.424
00:44:56.277 : en:00:44:56.277
00:49:55.409 : en:00:49:55.409
00:53:09.686 : en:00:53:09.686
01:02:46.095 : en:01:02:46.095
01:07:46.312 : en:01:07:46.312
01:12:17.917 : en:01:12:17.917
01:15:41.287 : en:01:15:41.287
01:18:54.229 : en:01:18:54.229

Скриншот c названием фильма

Скриншоты





Создавать темы 30-Ноя-2015 19:56

[Профиль]  [ЛС] 
Показать сообщения:    
Ответить на тему

Текущее время: 25-Сен 04:02

Часовой пояс: UTC + 5



Вы не можете начинать темы
Вы не можете отвечать на сообщения
Вы не можете редактировать свои сообщения
Вы не можете удалять свои сообщения
Вы не можете голосовать в опросах
Вы не можете прикреплять файлы к сообщениям
Вы не можете скачивать файлы