Молния / Ширинка / Zipper (Мора Стивенс / Mora Stephens) [2015, США, триллер, драма, BDRip] (VO : Andi) (Sub Rus)

Ответить на тему
 

igor1968 ®

Стаж: 5 лет 7 месяцев

Сообщений: 366

Симпатии: 197

Молния / Ширинка / Zipper«Why take the risk» Страна:
Жанр: триллер, драма
Год выпуска: 2015
Продолжительность: 01:52:41.265
Перевод: Одноголосый закадровый Доп. инфо о переводе (Andi)
Cубтитры: русские / английские (отключаемые)
Режиссер: Мора Стивенс / Mora Stephens
В ролях: Патрик Уилсон
Лина Хиди
Рэй Уинстон
Ричард Дрейфусс
Джон Чо
Дианна Агрон
Кристофер МакДональд
Александра Брекенридж
Пенелопа Митчелл
Елена Сатине
...
Описание: История о семьянине, который рискует потерять все, потому что не может подавить свою страсть к другим женщинам…
Доп. информация:
сценарий Мора Стивенс, Джоэль Виртел
продюсер Марина Грасик, Марк Хейман, Amy Mitchell-Smith, ...
оператор Антонио Кальваче
композитор Х. Скотт Салинас
художник Ханна Бичлер, Шона Леоне, Gretchen Gattuso, ...
монтаж Джессика Брунетто, Джоэль Виртел
бюджет $4 500 000
премьера 27 января 2015, ...-
Качество видео: BDRip
Формат видео: AVI
Видео: 720x304 (2.37:1), 23.976 fps, XviD build 67 ~1463 kbps avg, 0.28 bit/pixel
Аудио: 48 kHz, AC3 Dolby Digital, 2/0 (L,R) ch, ~192.00 kbps avg (rus)
Аудио 2: 48 kHz, AC3 Dolby Digital, 2/0 (L,R) ch, ~192.00 kbps avg (eng)
Формат субтитров: softsub (SRT)

MediaInfo

General
Complete name : Zipper_2015_BDRip_by_Dalemake\Zipper_2015_BDRip_by_Dalemake.avi
Format : AVI
Format/Info : Audio Video Interleave
File size : 1.47 GiB
Duration : 1h 52mn
Overall bit rate : 1 862 Kbps
Writing application : VirtualDubMod 1.5.10.3 | www.virtualdub-fr.org || (build 2550/release)
Writing library : VirtualDubMod build 2550/release
Video
ID : 0
Format : MPEG-4 Visual
Format profile : Advanced [email protected]
Format settings, BVOP : 1
Format settings, QPel : No
Format settings, GMC : No warppoints
Format settings, Matrix : Custom
Codec ID : XVID
Codec ID/Hint : XviD
Duration : 1h 52mn
Bit rate : 1 464 Kbps
Width : 720 pixels
Height : 304 pixels
Display aspect ratio : 2.35:1
Frame rate : 23.976 fps
Color space : YUV
Chroma subsampling : 4:2:0
Bit depth : 8 bits
Scan type : Progressive
Compression mode : Lossy
Bits/(Pixel*Frame) : 0.279
Stream size : 1.15 GiB (79%)
Writing library : XviD 67
Audio #1
ID : 1
Format : AC-3
Format/Info : Audio Coding 3
Mode extension : CM (complete main)
Format settings, Endianness : Big
Codec ID : 2000
Duration : 1h 52mn
Bit rate mode : Constant
Bit rate : 192 Kbps
Channel(s) : 2 channels
Channel positions : Front: L R
Sampling rate : 48.0 KHz
Bit depth : 16 bits
Compression mode : Lossy
Stream size : 155 MiB (10%)
Alignment : Split accross interleaves
Interleave, duration : 42 ms (1.00 video frame)
Interleave, preload duration : 500 ms
Audio #2
ID : 2
Format : AC-3
Format/Info : Audio Coding 3
Mode extension : CM (complete main)
Format settings, Endianness : Big
Codec ID : 2000
Duration : 1h 52mn
Bit rate mode : Constant
Bit rate : 192 Kbps
Channel(s) : 2 channels
Channel positions : Front: L R
Sampling rate : 48.0 KHz
Bit depth : 16 bits
Compression mode : Lossy
Stream size : 155 MiB (10%)
Alignment : Split accross interleaves
Interleave, duration : 42 ms (1.00 video frame)
Interleave, preload duration : 500 ms

Скриншот c названием фильма

Скриншоты





Создавать темы 30-Ноя-2015 21:51

[Профиль]  [ЛС] 

igor1968 ®

Стаж: 5 лет 7 месяцев

Сообщений: 366

Симпатии: 197

Для удобства и быстрой загрузки в свойство торрента добавьте http://re-tracker.uz/announce

скриншоты


Создавать темы 30-Ноя-2015 23:10

[Профиль]  [ЛС] 
Показать сообщения:    
Ответить на тему

Текущее время: 24-Окт 05:32

Часовой пояс: UTC + 5



Вы не можете начинать темы
Вы не можете отвечать на сообщения
Вы не можете редактировать свои сообщения
Вы не можете удалять свои сообщения
Вы не можете голосовать в опросах
Вы не можете прикреплять файлы к сообщениям
Вы не можете скачивать файлы