Ватиканские записи / The Vatican Tapes (Марк Невелдайн / Mark Neveldine) [2015, США, ужасы, триллер, ..., HDRip] (Dub : iTunes)

Ответить на тему
 

igor1968 ®

Стаж: 5 лет 5 месяцев

Сообщений: 366

Симпатии: 197

Ватиканские записи / The Vatican Tapes«For 2,000 years the Vatican has recorded evidence of evil. May God have mercy on their souls» Страна:
Жанр: ужасы, триллер, ...
Год выпуска: 2015
Продолжительность: 01:30:52.280
Перевод: Профессиональный (дублированный) Доп. инфо о переводе iTunes
Cубтитры: нет
Режиссер: Марк Невелдайн / Mark Neveldine
В ролях: В главных ролях:
Майкл Пенья
Дюгрей Скотт
Кэтлин Робертсон
Элисон Ломан
Джимон Хонсу
Оливия Тейлор Дадли
Джон Патрик Амедори
Майкл Паре
Темина Санни
Дэниэл Бернхард
...
Роли дублировали:
Андрей Бархударов
Александр Груздев
Татьяна Шитова
Олег Куценко
Ольга Шорохова
.
Анжела Холмс жила обычной жизнью, пока внезапно не начала оказывать разрушительное воздействие на окружающих, причиняя людям серьезные, иногда смертельные травмы. Местный священник, отец Лозано, уверен в ее одержимости. Приглашенные для проведения сеанса экзорцизма кардиналы из Ватикана сталкиваются с древней сатанинской силой, большей, чем они могли себе представить.
Доп. информация:
сценарий Кристофер Боррелли, Майкл С. Мартин, Крис Морган
продюсер Крис Коулз, Гари Лучези, Крис Морган, ...
оператор Жерардо Матео Мадрасо
композитор Джозеф Бишара
художник Джерри Флеминг, Линдсей МакКей
монтаж Эрик Поттер
бюджет $8 495 000
сборы в $1 784 763
сборы в $1 147 390
зрители
334.8 тыс.
премьера 23 июля 2015, ...
премьера 30 июля 2015, «Централ Партнершип»- -Качество видео: HDRip
Формат видео: AVI
Видео: 720x400 (1.80:1), 23.976 fps, XviD build 50 ~1898 kbps avg, 0.28 bit/pixel
Аудио: 48 kHz, AC3 Dolby Digital, 2/0 (L,R) ch, ~384.00 kbps avg

MediaInfo

General
Complete name : The Vatican Tapes.2015.D.HDRip.avi
Format : AVI
Format/Info : Audio Video Interleave
File size : 1.45 GiB
Duration : 1h 30mn
Overall bit rate : 2 292 Kbps
Writing application : VirtualDubMod 1.5.10.3 | www.virtualdub-fr.org || (build 2550/release)
Writing library : VirtualDubMod build 2550/release
Video
ID : 0
Format : MPEG-4 Visual
Format profile : Advanced [email protected]
Format settings, BVOP : 2
Format settings, QPel : No
Format settings, GMC : No warppoints
Format settings, Matrix : Default (MPEG)
Codec ID : XVID
Codec ID/Hint : XviD
Duration : 1h 30mn
Bit rate : 1 899 Kbps
Width : 720 pixels
Height : 400 pixels
Display aspect ratio : 16:9
Frame rate : 23.976 fps
Color space : YUV
Chroma subsampling : 4:2:0
Bit depth : 8 bits
Scan type : Progressive
Compression mode : Lossy
Bits/(Pixel*Frame) : 0.275
Stream size : 1.21 GiB (83%)
Writing library : XviD 1.2.1 (UTC 2008-12-04)
Audio
ID : 1
Format : AC-3
Format/Info : Audio Coding 3
Mode extension : CM (complete main)
Format settings, Endianness : Big
Codec ID : 2000
Duration : 1h 30mn
Bit rate mode : Constant
Bit rate : 384 Kbps
Channel(s) : 2 channels
Channel positions : Front: L R
Sampling rate : 48.0 KHz
Bit depth : 16 bits
Compression mode : Lossy
Stream size : 250 MiB (17%)
Alignment : Split accross interleaves
Interleave, duration : 42 ms (1.00 video frame)
Interleave, preload duration : 500 ms

Скриншот c названием фильма

Скриншоты




-

Создавать темы 30-Ноя-2015 23:08

[Профиль]  [ЛС] 

igor1968 ®

Стаж: 5 лет 5 месяцев

Сообщений: 366

Симпатии: 197

Для удобства и быстрой загрузки в свойство торрента добавьте http://re-tracker.uz/announce

скриншоты


Создавать темы 30-Ноя-2015 23:10

[Профиль]  [ЛС] 
Показать сообщения:    
Ответить на тему

Текущее время: 17-Авг 16:49

Часовой пояс: UTC + 5



Вы не можете начинать темы
Вы не можете отвечать на сообщения
Вы не можете редактировать свои сообщения
Вы не можете удалять свои сообщения
Вы не можете голосовать в опросах
Вы не можете прикреплять файлы к сообщениям
Вы не можете скачивать файлы