Дорога / Road (Джон Хиллкоут / John Hillkout) [2009, США, Драма, Приключения, DVDRip] (DVO)

Ответить на тему
 

Nehtez ®

Стаж: 1 год 8 месяцев

Сообщений: 75

Симпатии: 34

Дорога / Road
Страна: США
Жанр: Драма, Приключения
Год выпуска: 2009
Продолжительность: 1:51
Перевод: Профессиональный (двухголосый закадровый)
Cубтитры: нет
Режиссер: Джон Хиллкоут / John Hillkout
В ролях: Вигго Мортенсен
Коди Смит-МакФи
Шарлиз Терон
Гай Пирс
Роберт Дювалл
Молли Паркер
Майкл Кеннет Уильямс
Гаррет Диллахант
Боб Дженнингс
Аньес Херрманн
Описание: На Землю обрушились чудовищные катаклизмы, цивилизация уничтожена, как и практически вся жизнь на планете. Оставшееся человечество разделилось на каннибалов и их добычу. По дороге, покрытой пеплом, идут отец с сыном. Они хотят добраться до теплых мест, чтобы выжить…
Качество видео: DVDRip
Формат видео: AVI
Видео: Xvid 720x304 23.976fps 1631kbps [V: mpeg4 advanced simple profile, yuv420p, 720x304, 1631 kb/s]
Аудио: Dolby AC3 48000Hz stereo 192kbps [A: ac3, 48000 Hz, stereo, 192 kb/s]

MediaInfo

Формат : AVI
Формат/Информация : Audio Video Interleave
Размер файла : 1,43 Гбайт
Продолжительность : 1 ч. 51 м.
Общий поток : 1833 Кбит/сек
Программа кодирования : VirtualDubMod 1.5.10.3 | www.virtualdub-fr.org || (build 2550/release)
Библиотека кодирования : VirtualDubMod build 2550/release
Видео
Идентификатор : 0
Формат : MPEG-4 Visual
Профиль формата : Advanced [email protected]
Параметр BVOP формата : 1
Параметр QPel формата : Нет
Параметр GMC формата : Без точки перехода
Параметр матрицы формата : Выборочная
Идентификатор кодека : XVID
Идентификатор кодека/Подсказка : XviD
Продолжительность : 1 ч. 51 м.
Битрейт : 1632 Кбит/сек
Ширина : 720 пикселей
Высота : 304 пикселя
Соотношение сторон : 2,35:1
Частота кадров : 23,976 (23976/1000) кадра/сек
Цветовое пространство : YUV
Субдискретизация насыщенности : 4:2:0
Битовая глубина : 8 бит
Тип развёртки : Прогрессивная
Метод сжатия : С потерями
Бит/(Пиксели*Кадры) : 0.311
Размер потока : 1,27 Гбайт (89%)
Библиотека кодирования : XviD 73
Аудио
Идентификатор : 1
Формат : AC-3
Формат/Информация : Audio Coding 3
Расширение режима : CM (complete main)
Параметр Endianness формата : Big
Идентификатор кодека : 2000
Продолжительность : 1 ч. 51 м.
Вид битрейта : Постоянный
Битрейт : 192 Кбит/сек
Каналы : 2 канала
Расположение каналов : Front: L R
Частота : 48,0 КГц
Частота кадров : 31,250 кадров/сек (1536 spf)
Метод сжатия : С потерями
Размер потока : 153 Мбайт (10%)
Выравнивание : Разделение по промежуткам
Продолжительность промежутка : 42 мс. (1,00 видеокадр)
Время предзагрузки промежутка : 500 мс.

Скриншот c названием фильма

Скриншоты






Последний раз редактировалось: Nehtez (2015-12-16 00:14), всего редактировалось 7 раз(а)

Создавать темы 01-Дек-2015 03:05

[Профиль]  [ЛС] 

Grock

Стаж: 6 лет 6 месяцев

Сообщений: 637

Симпатии: 113

Nehtez, Загрузите корректные скриншоты по следующей инструкции -
Как сделать скриншоты с помощью Media Player Classic?

Создавать темы 02-Дек-2015 10:53

[Профиль]  [ЛС] 

Страх

Стаж: 3 года 10 месяцев

Сообщений: 1131

Симпатии: 448

в оформлении 532 ширина, а в видео данных другие. так что добавьте оригинальные скриншоты.

Создавать темы 04-Дек-2015 21:48

[Профиль]  [ЛС] 

Nehtez ®

Стаж: 1 год 8 месяцев

Сообщений: 75

Симпатии: 34

Скрины оригинальные.
Снимал на своём компе, через MPC.

Информация от Страх


пробник вашего файла)

Создавать темы 09-Дек-2015 01:00

[Профиль]  [ЛС] 
Показать сообщения:    
Ответить на тему

Текущее время: 21-Авг 11:19

Часовой пояс: UTC + 5



Вы не можете начинать темы
Вы не можете отвечать на сообщения
Вы не можете редактировать свои сообщения
Вы не можете удалять свои сообщения
Вы не можете голосовать в опросах
Вы не можете прикреплять файлы к сообщениям
Вы не можете скачивать файлы