Семейка вампиров 2 / Die Vampirschwestern (Вольфганг Гроос) [2014, Германия, Фэнтези, драма, комедия, приключения, семейный, HDRip] (MVO : [XDUB, victory-films и Колобок])

Ответить на тему
 

lucky999 ®

Стаж: 1 год 11 месяцев

Сообщений: 32

Симпатии: 43

Семейка вампиров 2 / Die Vampirschwestern
Страна: Германия
Жанр: Фэнтези, драма, комедия, приключения, семейный
Год выпуска: 2014
Продолжительность: 01:29:37
Перевод: Любительский многоголосый Доп. инфо о переводе [XDUB, victory-films и Колобок]
Режиссер: Вольфганг Гроос
В ролях: Диана Амфт, Джэйми Бик, Стипе Эрцег, Георг Фридрих, Йонас Холденриедер, Михаэль Кесслер, Марта Мартин, Йеремиас Мейер, Рихи Мюллер, Кристиана Пауль
Описание: Две двенадцатилетние сестры наполовину вампиры Дакария и Сильвения переезжают вместе с семьёй из Трансильвании в небольшой немецкий городок. Там им предстоит узнать, что значит жить среди людей: летать только ночью, не ходить по потолкам и скрывать все свои прочие сверхспособности.
Доп. информация: IMDB рейтинг: 5.6/10
КиноПоиск рейтинг: 0.0/10
Качество видео: HDRip
Формат видео: AVI
Видео: Xvid 720x384 25fps 1859kbps [V: mpeg4 advanced simple profile, yuv420p, 720x384, 1859 kb/s]
Аудио: Dolby AC3 48000Hz 6ch 384kbps [A: ac3, 48000 Hz, 5.1, 384 kb/s]

MediaInfo

General
Complete name : D:\torrent\Die.Vampirschwestern.2.2014.HDRip.avi
Format : AVI
Format/Info : Audio Video Interleave
File size : 1.41 GiB
Duration : 1h 29mn
Overall bit rate : 2 254 Kbps
Writing application : VirtualDubMod 1.5.10.3 | www.virtualdub-fr.org || (build 2550/release)
Writing library : VirtualDubMod build 2550/release
Video
ID : 0
Format : MPEG-4 Visual
Format profile : Advanced [email protected]
Format settings, BVOP : 1
Format settings, QPel : No
Format settings, GMC : No warppoints
Format settings, Matrix : Default (H.263)
Codec ID : XVID
Codec ID/Hint : XviD
Duration : 1h 29mn
Bit rate : 1 860 Kbps
Width : 720 pixels
Height : 384 pixels
Display aspect ratio : 1.85:1
Frame rate : 25.000 fps
Color space : YUV
Chroma subsampling : 4:2:0
Bit depth : 8 bits
Scan type : Progressive
Compression mode : Lossy
Bits/(Pixel*Frame) : 0.269
Stream size : 1.16 GiB (83%)
Writing library : XviD 1.2.1 (UTC 2008-12-04)
Audio
ID : 1
Format : AC-3
Format/Info : Audio Coding 3
Mode extension : CM (complete main)
Format settings, Endianness : Big
Codec ID : 2000
Duration : 1h 29mn
Bit rate mode : Constant
Bit rate : 384 Kbps
Channel(s) : 6 channels
Channel positions : Front: L C R, Side: L R, LFE
Sampling rate : 48.0 KHz
Compression mode : Lossy
Stream size : 246 MiB (17%)
Alignment : Split accross interleaves
Interleave, duration : 40 ms (1.00 video frame)
Interleave, preload duration : 500 ms

Скриншот c названием фильма

Скриншоты

Создавать темы 01-Дек-2015 07:01

[Профиль]  [ЛС] 
Показать сообщения:    
Ответить на тему

Текущее время: 23-Авг 11:20

Часовой пояс: UTC + 5



Вы не можете начинать темы
Вы не можете отвечать на сообщения
Вы не можете редактировать свои сообщения
Вы не можете удалять свои сообщения
Вы не можете голосовать в опросах
Вы не можете прикреплять файлы к сообщениям
Вы не можете скачивать файлы