Школа Монстров: Бу-Йорк, Бу-Йорк / Monster High: Boo York, Boo York (Уильям Лау / William Lau) [2015, США, мультфильм, семейный, TVRip] (Dub)

Ответить на тему
 

Ravilya ®

Стаж: 2 года 4 месяца

Сообщений: 22

Симпатии: 33

Школа Монстров: Бу-Йорк, Бу-Йорк / Monster High: Boo York, Boo York
Страна: США
Жанр: мультфильм, семейный
Год выпуска: 2015
Продолжительность: 01:08:35
Перевод: Профессиональный (дублированный)
Cубтитры: нет
Режиссер: Уильям Лау / William Lau
В ролях: Карен Страссман
Описание: Приключения учениц школы Монстр Хай в городе моды и музыки Бу-Йорке.
Девочки отправляются покорять Бу-Йорк и выступать на Бладвее со своим мюзиклом. Тем временем в городе готовится грандиозная вечеринка в честь редкой кометы, которая совсем скоро прилетит на Землю. Эта комета обладает некой волшебной силой, и весь город гудит в ожидании долгожданного события. Вместе с кометой с небес прилетит мечтательная девушка-инопланетянка. Она идеально дополнит музыкальную группу монстрических певиц, и вечеринка получится поистине незабываемой. Зажигай, Бу-Йорк!
Качество видео: TVRip
Формат видео: MPEG-PS
Видео: MPEG2 Video, 720x576 (4:3), 25 fps, 3100 kbps
Аудио: MPEG Audiо, 2 сh, 48 kHz, 192 kbps
 

MediaInfo

General
Complete name : D:\torrent\Monster High Boo York, Boo York. (2015)_DVB by SLuMeP.mpg
Format : MPEG-PS
File size : 1.59 GiB
Duration : 1h 8mn
Overall bit rate mode : Variable
Overall bit rate : 3 310 Kbps
Video #224
ID : 224 (0xE0)
Format : MPEG Video
Format version : Version 2
Format profile : [email protected]
Format settings, BVOP : Yes
Format settings, Matrix : Custom
Format settings, GOP : Variable
Format settings, picture structure : Frame
Duration : 1h 8mn
Bit rate mode : Variable
Bit rate : 3 052 Kbps
Maximum bit rate : 5 000 Kbps
Width : 720 pixels
Height : 576 pixels
Display aspect ratio : 4:3
Frame rate : 25.000 fps
Standard : PAL
Color space : YUV
Chroma subsampling : 4:2:0
Bit depth : 8 bits
Scan type : Interlaced
Scan order : Top Field First
Compression mode : Lossy
Bits/(Pixel*Frame) : 0.294
Time code of first frame : 00:00:00:00
Time code source : Group of pictures header
GOP, Open/Closed : Open
GOP, Open/Closed of first frame : Closed
Stream size : 1.46 GiB (92%)
Audio #192
ID : 192 (0xC0)
Format : MPEG Audio
Format version : Version 1
Format profile : Layer 2
Duration : 1h 8mn
Bit rate mode : Constant
Bit rate : 192 Kbps
Channel(s) : 2 channels
Sampling rate : 48.0 KHz
Compression mode : Lossy
Stream size : 94.2 MiB (6%)

Скриншоты





Последний раз редактировалось: Ravilya (2015-12-01 16:32), всего редактировалось 1 раз

Создавать темы 01-Дек-2015 14:17

[Профиль]  [ЛС] 

express343

Стаж: 4 года 7 месяцев

Сообщений: 6

пожалуйста скорости)

Создавать темы 31-Янв-2016 01:52

[Профиль]  [ЛС] 
Показать сообщения:    
Ответить на тему

Текущее время: 23-Сен 05:07

Часовой пояс: UTC + 5



Вы не можете начинать темы
Вы не можете отвечать на сообщения
Вы не можете редактировать свои сообщения
Вы не можете удалять свои сообщения
Вы не можете голосовать в опросах
Вы не можете прикреплять файлы к сообщениям
Вы не можете скачивать файлы