Шнайдер против Бакса / Schneider vs. Bax (Алекс ван Вармердам) [2015, Нидерланды, Комедия,Трилрер, WEBDLRip] (Dub)

Ответить на тему
 

Hurracan ®

Стаж: 2 года 1 месяц

Сообщений: 79

Симпатии: 80

Шнайдер против Бакса / Schneider vs. Bax
Страна: Нидерланды
Жанр: Комедия,Трилрер
Год выпуска: 2015
Продолжительность: 01:32:32
Перевод: Профессиональный (дублированный)
Cубтитры: нет
Режиссер: Алекс ван Вармердам
В ролях: Пьер Бокма, Алекс ван Вармердам, Том Де Виспеларе, Ева ван де Вийдевен, Гене Бервутс, Мария Краакман, Аннет Мальэрб, Анри Гарсен, Лоэс Хаверкорт
Описание: Шнайдер — наемный убийца-профессионал. Даже в день своего рождения он обязан подчиниться заказчику, некоему Мертенсу, и ликвидировать Рамона Бакса, писателя, живущего в домишке на берегу озера, окруженного болотами. Киллеру приходится спешить — ведь дома его ждет праздничный обед в кругу семьи. Однако в этот день все идет наперекосяк. Непредвиденные обстоятельства то и дело возникают на пути Шнайдера, отодвигая исход операции. Он нервничает и не догадывается, что его жертва на самом деле тоже профессиональный гангстер, у которого он, Шнайдер, на мушке…
Доп. информация:
Сценаристы: Алекс ван Вармердам
Продюсеры: Марк ван Вармердам, Эвридика Гизель, Коэн Мортье
Бюджет: €3 000 000
Качество видео: WEBDLRip
Формат видео: AVI
Видео: Xvid 720x304 25fps 1976kbps
Аудио: MP3 48000Hz stereo 128kbps

MediaInfo

General
Complete name : C:\Users\Hurracan\Downloads\Video\Shnaider.vs.Bax.2015.D.WEB-DLRip.avi
Format : AVI
Format/Info : Audio Video Interleave
File size : 1.37 GiB
Duration : 1h 32mn
Overall bit rate : 2 114 Kbps
Writing application : VirtualDubMod 1.5.10.3 | www.virtualdub-fr.org || (build 2550/release)
Writing library : VirtualDubMod build 2550/release
Video
ID : 0
Format : MPEG-4 Visual
Format profile : Advanced [email protected]
Format settings, BVOP : 1
Format settings, QPel : No
Format settings, GMC : No warppoints
Format settings, Matrix : Custom
Codec ID : XVID
Codec ID/Hint : XviD
Duration : 1h 32mn
Bit rate : 1 977 Kbps
Width : 720 pixels
Height : 304 pixels
Display aspect ratio : 2.35:1
Frame rate : 25.000 fps
Color space : YUV
Chroma subsampling : 4:2:0
Bit depth : 8 bits
Scan type : Progressive
Compression mode : Lossy
Bits/(Pixel*Frame) : 0.361
Stream size : 1.28 GiB (93%)
Writing library : XviD 73
Audio
ID : 1
Format : MPEG Audio
Format version : Version 1
Format profile : Layer 3
Mode : Joint stereo
Codec ID : 55
Codec ID/Hint : MP3
Duration : 1h 32mn
Bit rate mode : Constant
Bit rate : 128 Kbps
Channel(s) : 2 channels
Sampling rate : 48.0 KHz
Compression mode : Lossy
Stream size : 84.7 MiB (6%)
Alignment : Aligned on interleaves
Interleave, duration : 40 ms (1.00 video frame)
Interleave, preload duration : 504 ms
Writing library : LAME3.99r
Encoding settings : -m j -V 4 -q 3 -lowpass 17 -b 128

Скриншоты




Создавать темы 01-Дек-2015 16:42

[Профиль]  [ЛС] 
Показать сообщения:    
Ответить на тему

Текущее время: 21-Ноя 15:07

Часовой пояс: UTC + 5



Вы не можете начинать темы
Вы не можете отвечать на сообщения
Вы не можете редактировать свои сообщения
Вы не можете удалять свои сообщения
Вы не можете голосовать в опросах
Вы не можете прикреплять файлы к сообщениям
Вы не можете скачивать файлы