Молодость / Youth (Паоло Соррентино / Paolo Sorrentino) [2015, Италия, Франция, Швейцария, Великобритания, драма, HDRip] (Dub) [Чистый звук]

Ответить на тему
 

yousuf ®

Стаж: 1 год 10 месяцев

Сообщений: 3

Симпатии: 3

Молодость (2015) HDRip Чистый звук / Youth (2015) HDRip
Страна: Италия, Франция, Швейцария, Великобритания
Жанр: драма
Год выпуска: 2015
Продолжительность: 02:03:33
Перевод: Профессиональный (дублированный)
Cубтитры: нет
Режиссер: Паоло Соррентино / Paolo Sorrentino
В ролях: Майкл Кейн, Харви Кейтель, Рэйчел Вайс, Пол Дано, Джейн Фонда, Марк Козелек, Роберт Ситалер, Алекс МакКуин, Луна Зимич Мийович, Том Липински
Описание: Фрэд — прославленный композитор и дирижер, вопреки просьбам Ее Величества, отказывается выступить на Дне Рождении принца Филиппа, и на это у него есть веская причина. Мик, оскароносный режиссер, вовсю работает над новым сценарием «фильма-откровения», но дело не слишком спорится.
Фрэд и Мик уже полвека дружат, смеются над собой и дивятся красоте и несправедливости этого мира. Это лето они проводят на альпийском курорте, где любовные переживания уже взрослых детей, случайно подсмотренные драмы и откровения далекого прошлого навсегда изменят судьбы друзей.
Качество видео: HDRip
Формат видео: AVI
Видео: 640x272 (2.35:1), 23.976 fps, XviD build 73 ~709 kbps avg, 0.17 bit/pixel
Аудио: 48 kHz, AC3 Dolby Digital, 2/0 (L,R) ch, ~128.00 kbps avg

MediaInfo

General
Complete name : Youth.2015_HDRip.avi
Format : AVI
Format/Info : Audio Video Interleave
File size : 748 MiB
Duration : 2h 3mn
Overall bit rate : 847 Kbps
Writing application : VirtualDubMod 1.5.10.2 (build 2540/release)
Writing library : VirtualDubMod build 2540/release
Video
ID : 0
Format : MPEG-4 Visual
Format profile : Advanced [email protected]
Format settings, BVOP : 1
Format settings, QPel : No
Format settings, GMC : No warppoints
Format settings, Matrix : Custom
Codec ID : XVID
Codec ID/Hint : XviD
Duration : 2h 3mn
Bit rate : 709 Kbps
Width : 640 pixels
Height : 272 pixels
Display aspect ratio : 2.35:1
Frame rate : 23.976 fps
Color space : YUV
Chroma subsampling : 4:2:0
Bit depth : 8 bits
Scan type : Progressive
Compression mode : Lossy
Bits/(Pixel*Frame) : 0.170
Stream size : 627 MiB (84%)
Writing library : XviD 73
Audio
ID : 1
Format : AC-3
Format/Info : Audio Coding 3
Mode extension : CM (complete main)
Format settings, Endianness : Big
Codec ID : 2000
Duration : 2h 3mn
Bit rate mode : Constant
Bit rate : 128 Kbps
Channel(s) : 2 channels
Channel positions : Front: L R
Sampling rate : 48.0 KHz
Bit depth : 16 bits
Compression mode : Lossy
Stream size : 113 MiB (15%)
Alignment : Split accross interleaves
Interleave, duration : 42 ms (1.00 video frame)
Interleave, preload duration : 500 ms

Скриншот c названием фильма

Скриншоты





Последний раз редактировалось: yousuf (2015-12-02 16:10), всего редактировалось 1 раз

Создавать темы 01-Дек-2015 18:10

[Профиль]  [ЛС] 

Grock

Стаж: 6 лет 7 месяцев

Сообщений: 637

Симпатии: 113

yousuf, Залейте скриншоты оргинального размера - 640x272

Создавать темы 02-Дек-2015 10:33

[Профиль]  [ЛС] 

yousuf ®

Стаж: 1 год 10 месяцев

Сообщений: 3

Симпатии: 3

960780yousuf, Залейте скриншоты оргинального размера - 640x272
net dostupa k redaktirovaniyu

Создавать темы 02-Дек-2015 15:56

[Профиль]  [ЛС] 

yousuf ®

Стаж: 1 год 10 месяцев

Сообщений: 3

Симпатии: 3

960812
960780yousuf, Залейте скриншоты оргинального размера - 640x272
net dostupa k redaktirovaniyu
sorry. vrodeby spravilsya.

Создавать темы 02-Дек-2015 16:13

[Профиль]  [ЛС] 

kenparck

Стаж: 5 лет 7 месяцев

Сообщений: 10

Зарегестрирован месяц назад а скачан 0 раз, ну и как это понимать?? у меня на 75% уже две недели висит

Создавать темы 02-Янв-2016 16:12

[Профиль]  [ЛС] 

Admin

Стаж: 5 лет 8 месяцев

Сообщений: 580

Симпатии: 106

kenparck, Последняя активность автора: 2015-12-09 22:25

Создавать темы 02-Янв-2016 16:55

[Профиль]  [ЛС] 

beckdjan94

Стаж: 2 года 6 месяцев

Сообщений: 1

у меня уже месяц.....(( так

Создавать темы 12-Янв-2016 21:34

[Профиль]  [ЛС] 

ruwind

Стаж: 3 года 8 месяцев

Сообщений: 13

Симпатии: 16

Терпение через неделю выложу в BDRip ))

Создавать темы 03-Фев-2016 18:18

[Профиль]  [ЛС] 

totsamiy

Стаж: 5 лет 3 месяца

Сообщений: 145

Симпатии: 22

релизер безответственный... удалил закачку........

Создавать темы 07-Фев-2016 12:58

[Профиль]  [ЛС] 
Показать сообщения:    
Ответить на тему

Текущее время: 25-Сен 23:49

Часовой пояс: UTC + 5



Вы не можете начинать темы
Вы не можете отвечать на сообщения
Вы не можете редактировать свои сообщения
Вы не можете удалять свои сообщения
Вы не можете голосовать в опросах
Вы не можете прикреплять файлы к сообщениям
Вы не можете скачивать файлы