Прежде чем мы расстанемся / Before We Go (Крис Эванс) [2014, США, Драма, мелодрама, комедия, HDRip] (MVO)

Ответить на тему
 

lucky999 ®

Стаж: 1 год 11 месяцев

Сообщений: 32

Симпатии: 43

Прежде чем мы расстанемся / Before We Go
Страна: США
Жанр: Драма, мелодрама, комедия
Год выпуска: 2014
Продолжительность: 01:35:23
Перевод: Профессиональный многоголосый
Режиссер: Крис Эванс
В ролях: Крис Эванс, Элис Ив, Скотт Эванс, Эмма Фитцпатрик, Maria Breyman, Джон Каллам, Марк Кассен, Бет Катехис, Дэниэл Спинк, Кевин Керолан
Описание: Мужчина и женщина, ранее не знавшие друг друга, проводят ночь вместе. Противоречия, испытываемые героями в жизни, становятся основой для исследования друг друга и самих себя.
Доп. информация: сценарий Роналд Бэсс, Джен Смолка, Крис Шафер, ...
продюсер Ховард Болдуин, Карен Элиз Болдуин, Крис Эванс, ...
оператор Джон Галесериан
композитор Крис Уэстлэйк
художник Тереза Аврам, Артур Йонгевард, Анни Перрин, ...
монтаж Джон Экселрэд
IMDB рейтинг: 7.0/10
КиноПоиск рейтинг: 7.9/10
Качество видео: HDRip
Формат видео: AVI
Видео: Xvid 720x384 23.976fps 1670kbps [V: mpeg4 advanced simple profile, yuv420p, 720x384, 1670 kb/s]
Аудио: Dolby AC3 48000Hz 6ch 384kbps [A: ac3, 48000 Hz, 5.1, 384 kb/s]

MediaInfo

General
Complete name : E:\torrent\Prezhde.chem.my.rastanemsya.2014.DVO.HDRip.avi
Format : AVI
Format/Info : Audio Video Interleave
Format profile : OpenDML
Format settings : rec
File size : 1.37 GiB
Duration : 1h 35mn
Overall bit rate : 2 060 Kbps
Writing application : AVI-Mux GUI 1.17.8.3, Feb 16 201019:42:50
Video
ID : 0
Format : MPEG-4 Visual
Format profile : Advanced [email protected]
Format settings, BVOP : 2
Format settings, QPel : No
Format settings, GMC : No warppoints
Format settings, Matrix : Default (H.263)
Muxing mode : Packed bitstream
Codec ID : XVID
Codec ID/Hint : XviD
Duration : 1h 35mn
Bit rate : 1 670 Kbps
Width : 720 pixels
Height : 384 pixels
Display aspect ratio : 1.85:1
Frame rate : 23.976 fps
Color space : YUV
Chroma subsampling : 4:2:0
Bit depth : 8 bits
Scan type : Progressive
Compression mode : Lossy
Bits/(Pixel*Frame) : 0.252
Stream size : 1.11 GiB (81%)
Writing library : XviD 73
Audio
ID : 1
Format : AC-3
Format/Info : Audio Coding 3
Mode extension : CM (complete main)
Format settings, Endianness : Big
Codec ID : 2000
Duration : 1h 35mn
Bit rate mode : Constant
Bit rate : 384 Kbps
Channel(s) : 6 channels
Channel positions : Front: L C R, Side: L R, LFE
Sampling rate : 48.0 KHz
Compression mode : Lossy
Stream size : 262 MiB (19%)
Alignment : Aligned on interleaves
Interleave, duration : 64 ms (1.53 video frames)
Interleave, preload duration : 192 ms

Скриншот c названием фильма

Скриншоты

Создавать темы 01-Дек-2015 22:48

[Профиль]  [ЛС] 

totsamiy

Стаж: 5 лет 2 месяца

Сообщений: 145

Симпатии: 22

Перевод: Любительский многоголосый) [Студия "CCK Media Production" и NesTea]

Создавать темы 04-Дек-2015 17:31

[Профиль]  [ЛС] 
Показать сообщения:    
Ответить на тему

Текущее время: 20-Авг 18:42

Часовой пояс: UTC + 5



Вы не можете начинать темы
Вы не можете отвечать на сообщения
Вы не можете редактировать свои сообщения
Вы не можете удалять свои сообщения
Вы не можете голосовать в опросах
Вы не можете прикреплять файлы к сообщениям
Вы не можете скачивать файлы