Карнавал бесчестия / A dirty carnival / 비열한 거리, [Южная корея, боевик, криминал, триллер, 2006г,] [(vo),sub russian+english BDRip]

Ответить на тему
 

nyaPKOMAH ®

Стаж: 2 года 2 месяца

Сообщений: 25

Симпатии: 13

Страна: Южная корея
Жанр: боевик, триллер, криминал
Год выпуска: 2006
Продолжительность: 2:19:53
Перевод: Проф. (одноголосный)
Cубтитры: русские и английские в составе контейнера
Режиссер: Ха Ю
В ролях: Ин-сеонг Джо, Ин-Чже Хе, Ку Джин, Чо Ин Сон, Ким Бён Чхун, Юн-Хи Ким, Квон Тхэ Вон, Ли По Ён, Ли Чжон Хёк, Сан-и Ли
Описание: Пен Ду является правой рукой босса мелкой банды и ведет бесцельную, дикую жизнь. Он — единственная поддержка матери и двух младших братьев. Когда господин Хван просит его выполнить секретное задание, Пен Ду понимает, что это тот шанс, который нельзя упускать. Задание очень опасно, но в случае успеха Пен Ду больше не придется волноваться о деньгах для своей семьи
Качество видео: BDRip
Формат видео: matroska (.mkv)
Видео: AVC, 1024x448, 23.97fps, 1 784 Kbps
Аудио: AC-3, 6 channels, 48.0 KHz,

MediaInfo

General
Unique ID : 226391820766225412274772542316070137519 (0xAA517A8AA0E19673BF1033B3D6D96EAF)
Complete name : D:\download\Biyeolhan geori.2006.BDRip-AVC.mkv
Format : Matroska
Format version : Version 4 / Version 2
File size : 2.18 GiB
Duration : 2h 19mn
Overall bit rate : 2 234 Kbps
Movie name : Карнавал бесчестия / A Dirty Carnival / Biyeolhan geori (2006) BDRip-AVC rip by Rulya74
Encoded date : UTC 2013-08-21 09:30:52
Writing application : mkvmerge v6.2.0 ('Promised Land') built on Apr 28 2013 12:22:01
Writing library : libebml v1.3.0 + libmatroska v1.4.0
Video
ID : 1
Format : AVC
Format/Info : Advanced Video Codec
Format profile : [email protected]
Format settings, CABAC : Yes
Format settings, ReFrames : 13 frames
Codec ID : V_MPEG4/ISO/AVC
Duration : 2h 19mn
Bit rate : 1 784 Kbps
Width : 1 024 pixels
Height : 448 pixels
Display aspect ratio : 2.25:1
Frame rate mode : Constant
Frame rate : 23.976 fps
Color space : YUV
Chroma subsampling : 4:2:0
Bit depth : 8 bits
Scan type : Progressive
Bits/(Pixel*Frame) : 0.162
Stream size : 1.70 GiB (78%)
Writing library : x264 core 133 r2334 a3ac64b
Encoding settings : cabac=1 / ref=13 / deblock=1:-2:-1 / analyse=0x3:0x113 / me=umh / subme=10 / psy=1 / psy_rd=1.10:0.18 / mixed_ref=1 / me_range=32 / chroma_me=1 / trellis=2 / 8x8dct=1 / cqm=0 / deadzone=21,11 / fast_pskip=0 / chroma_qp_offset=-3 / threads=16 / lookahead_threads=1 / sliced_threads=0 / nr=0 / decimate=1 / interlaced=0 / bluray_compat=0 / constrained_intra=0 / bframes=12 / b_pyramid=2 / b_adapt=1 / b_bias=0 / direct=3 / weightb=1 / open_gop=0 / weightp=2 / keyint=240 / keyint_min=23 / scenecut=40 / intra_refresh=0 / rc_lookahead=40 / rc=2pass / mbtree=1 / bitrate=1784 / ratetol=1.0 / qcomp=0.60 / qpmin=0 / qpmax=69 / qpstep=4 / cplxblur=20.0 / qblur=0.5 / vbv_maxrate=62500 / vbv_bufsize=78125 / nal_hrd=none / ip_ratio=1.40 / aq=1:1.00
Default : Yes
Forced : No
Audio
ID : 2
Format : AC-3
Format/Info : Audio Coding 3
Mode extension : CM (complete main)
Format settings, Endianness : Big
Codec ID : A_AC3
Duration : 2h 19mn
Bit rate mode : Constant
Bit rate : 448 Kbps
Channel(s) : 6 channels
Channel positions : Front: L C R, Side: L R, LFE
Sampling rate : 48.0 KHz
Compression mode : Lossy
Stream size : 449 MiB (20%)
Title : Авторский (одноголосый закадровый, Ю. Сербин)
Language : Russian
Default : Yes
Forced : No
Text #1
ID : 3
Format : UTF-8
Codec ID : S_TEXT/UTF8
Codec ID/Info : UTF-8 Plain Text
Language : Russian
Default : Yes
Forced : No
Text #2
ID : 4
Format : UTF-8
Codec ID : S_TEXT/UTF8
Codec ID/Info : UTF-8 Plain Text
Language : English
Default : No
Forced : No
Menu
00:00:00.000 : :Chapter 01
00:10:13.988 : :Chapter 02
00:23:58.311 : :Chapter 03
00:37:49.892 : :Chapter 04
00:52:16.633 : :Chapter 05
00:59:52.964 : :Chapter 06
01:14:31.383 : :Chapter 07
01:24:01.536 : :Chapter 08
01:38:22.938 : :Chapter 09
01:48:25.582 : :Chapter 10
02:01:43.754 : :Chapter 11
02:17:53.598 : :Chapter 12

Скриншоты



Создавать темы 02-Дек-2015 03:09

[Профиль]  [ЛС] 

pct

Стаж: 6 лет 10 месяцев

Сообщений: 120

Симпатии: 12

Шикарность и крутота этого фильма зашкаливает. А гопники пусть прутся по бригаде...

Создавать темы 26-Фев-2016 18:50

[Профиль]  [ЛС] 
Показать сообщения:    
Ответить на тему

Текущее время: 14-Дек 01:39

Часовой пояс: UTC + 5



Вы не можете начинать темы
Вы не можете отвечать на сообщения
Вы не можете редактировать свои сообщения
Вы не можете удалять свои сообщения
Вы не можете голосовать в опросах
Вы не можете прикреплять файлы к сообщениям
Вы не можете скачивать файлы