Близкое расстояние / Close Range (Айзек Флорентайн / Isaac Florentine) [2015, США, Боевик, криминал, DVDRip] (MVO)

Ответить на тему
 

UZM ®

Стаж: 5 лет 3 месяца

Сообщений: 169

Симпатии: 189

Близкое расстояние / Close Range
Страна: США
Жанр: Боевик, криминал
Год выпуска: 2015
Продолжительность: 01:21:55
Перевод: Профессиональный (многоголосый закадровый)
Cубтитры: нет
Режиссер: Айзек Флорентайн / Isaac Florentine
В ролях: Скотт Эдкинс, Ник Чинланд, Кэйтлин Китс, Джэйк Ла Ботц, Тони Перес, Мэдисон Лоулор, Хулиен Цезарио, Джимми Чхиу, Рэй Диас, Роберт Дилл
Описание: Вызволив свою племянницу из лап могущественного картеля, Колтон Макреди вступает в беспощадный бой во имя спасения членов собственной семьи, ставших теперь мишенями для преступников. Его ферму, расположенную в провинциальной глубинке, осаждают жаждущие мести наёмники картеля, прихватившие с собой продажного местного шерифа с командой помощников, которые обеспечат гарантию того, что в ближайшее время к Макреди помощь не прибудет. Начинается безостановочный и методичный штурм фермы, и Колтону ради защиты своих близких и собственного спасения предстоит до конца пройти этот «марафон на выживание».
Качество видео: WEB-DLRip
Формат видео: AVI
Видео: MPEG-4, Xvid 720x400 25fps 1994kbps
Аудио: Dolby AC3 48,0Hz stereo 192kbps
Аудио 2: Dolby AC3 48,0Hz stereo 192kbps

MediaInfo

General
Complete name : D:\Кино\Blizkoe.rasstojanie.2015.L2.WEB-DLRip.avi
Format : AVI
Format/Info : Audio Video Interleave
File size : 1.37 GiB
Duration : 1h 21mn
Overall bit rate : 2 393 Kbps
Writing application : VirtualDubMod 1.5.10.3 | www.virtualdub-fr.org || (build 2550/release)
Writing library : VirtualDubMod build 2550/release
Video
ID : 0
Format : MPEG-4 Visual
Format profile : Advanced [email protected]
Format settings, BVOP : 1
Format settings, QPel : No
Format settings, GMC : No warppoints
Format settings, Matrix : Custom
Codec ID : XVID
Codec ID/Hint : XviD
Duration : 1h 21mn
Bit rate : 1 995 Kbps
Width : 720 pixels
Height : 400 pixels
Display aspect ratio : 16:9
Frame rate : 25.000 fps
Color space : YUV
Chroma subsampling : 4:2:0
Bit depth : 8 bits
Scan type : Progressive
Compression mode : Lossy
Bits/(Pixel*Frame) : 0.277
Stream size : 1.14 GiB (83%)
Writing library : XviD 73
Audio #1
ID : 1
Format : AC-3
Format/Info : Audio Coding 3
Mode extension : CM (complete main)
Format settings, Endianness : Big
Codec ID : 2000
Duration : 1h 21mn
Bit rate mode : Constant
Bit rate : 192 Kbps
Channel(s) : 2 channels
Channel positions : Front: L R
Sampling rate : 48.0 KHz
Compression mode : Lossy
Stream size : 112 MiB (8%)
Alignment : Split accross interleaves
Interleave, duration : 40 ms (1.00 video frame)
Interleave, preload duration : 500 ms
Audio #2
ID : 2
Format : AC-3
Format/Info : Audio Coding 3
Mode extension : CM (complete main)
Format settings, Endianness : Big
Codec ID : 2000
Duration : 1h 21mn
Bit rate mode : Constant
Bit rate : 192 Kbps
Channel(s) : 2 channels
Channel positions : Front: L R
Sampling rate : 48.0 KHz
Compression mode : Lossy
Stream size : 112 MiB (8%)
Alignment : Split accross interleaves
Interleave, duration : 40 ms (1.00 video frame)
Interleave, preload duration : 500 ms

Скриншот c названием фильма

Скриншоты

,
,
,


Последний раз редактировалось: UZM (2015-12-02 21:11), всего редактировалось 1 раз

Создавать темы 02-Дек-2015 13:20

[Профиль]  [ЛС] 

axeman

Стаж: 4 года 10 месяцев

Сообщений: 380

Симпатии: 50

Поправьте название "блиское" надо Близкое

Создавать темы 02-Дек-2015 15:06

[Профиль]  [ЛС] 

ulkiora5

Стаж: 4 года 3 месяца

Сообщений: 50

Симпатии: 25

Очередное отмывание денег!

Создавать темы 02-Дек-2015 15:21

[Профиль]  [ЛС] 

UZM ®

Стаж: 5 лет 3 месяца

Сообщений: 169

Симпатии: 189

axeman, извените не досмотрел!

Создавать темы 02-Дек-2015 21:12

[Профиль]  [ЛС] 
Показать сообщения:    
Ответить на тему

Текущее время: 21-Сен 18:55

Часовой пояс: UTC + 5



Вы не можете начинать темы
Вы не можете отвечать на сообщения
Вы не можете редактировать свои сообщения
Вы не можете удалять свои сообщения
Вы не можете голосовать в опросах
Вы не можете прикреплять файлы к сообщениям
Вы не можете скачивать файлы