Дополнительное время жизни / Lost Time Life / Loss:Time:Life / Life in additional time (Kakehi Masaya, Suzui Takayuki, Oki Ayako, Fujikawa Yusuke) [9+2SP/9+2SP][Япония, 2008, мистика, TVRip][Субтитры]

Ответить на тему
 

Jasur S ®

Стаж: 4 года 7 месяцев

Сообщений: 110

Симпатии: 111

-Дополнительное время жизни / Lost Time Life / Loss:Time:Life / Life in additional time
ロス:タイム:ライフ

-
Страна: Япония
Жанр: мистика, вариации
Год выпуска: 2008
Продолжительность: 9 серий + 2SP (все по 36 минут)
Cубтитры: русские
Оригинальная аудиодорожка: японский
-
Режиссеры: Kuriyama Chiaki, Kajihara Zen, Sakai Wakana, Tamura Ryo, Nukumizu Youichi, Kishimoto Kayoko, Oshima Yoko
В ролях:
Kuriyama Chiaki, Kajihara Zen, Sakai Wakana, Tamura Ryo, Nukumizu Youichi, Kishimoto Kayoko, Oshima Yoko
Описание: А что если жизнь это такой футбольный матч?
И когда этот матч неожиданно подходит к концу, появляется арбитр и назначает Вам - дополнительное время. И возможно это всего каких-то пять минут жизни. На что потратить это время? О чем вспомнить?
Как часто в своей жизни мы забываем о своих близких? О тех, кто нам дорог? А может, и жизнь вся была потрачена впустую? Возможно ли, за это данное лично Вам дополнительное время, хоть что-то исправить? Хоть что-то понять? (c) Риф
-
Доп. информация:
Русские субтитры 1-9 серий от Риф
Русские субтитры 2SP серий от Scarabus

-
Качество видео: TVRip
Формат видео: MP4
Видео: MPEG4 Video (H264) 480x272 29.97fps 512kbps [V: h264 main L3.0, yuv420p, 480x272, 512 kb/s]
Аудио: AAC 48000Hz stereo 128kbps [A: aac lc, 48000 Hz, stereo, 128 kb/s]

MediaInfo

General
Complete name : E:\Dramas\[DORAMA]Loss Time Life\Lost Time Life ep1.mp4
Format : MPEG-4
Format profile : Base Media
Codec ID : isom
File size : 168 MiB
Duration : 36mn 29s
Overall bit rate mode : Variable
Overall bit rate : 644 Kbps
Encoded date : UTC 2015-07-31 01:16:34
Tagged date : UTC 2015-07-31 01:16:34
Video
ID : 1
Format : AVC
Format/Info : Advanced Video Codec
Format profile : [email protected]
Format settings, CABAC : Yes
Format settings, ReFrames : 3 frames
Codec ID : avc1
Codec ID/Info : Advanced Video Coding
Duration : 36mn 29s
Bit rate : 512 Kbps
Maximum bit rate : 3 138 Kbps
Width : 480 pixels
Height : 272 pixels
Display aspect ratio : 16:9
Frame rate mode : Constant
Frame rate : 29.970 fps
Color space : YUV
Chroma subsampling : 4:2:0
Bit depth : 8 bits
Scan type : Progressive
Bits/(Pixel*Frame) : 0.131
Stream size : 134 MiB (79%)
Writing library : x264 core 130 r2273 b3065e6
Encoding settings : cabac=1 / ref=3 / deblock=1:1:1 / analyse=0x1:0x131 / me=umh / subme=10 / psy=1 / psy_rd=1.00:0.00 / mixed_ref=1 / me_range=16 / chroma_me=1 / trellis=2 / 8x8dct=0 / cqm=0 / deadzone=21,11 / fast_pskip=0 / chroma_qp_offset=-2 / threads=3 / lookahead_threads=1 / sliced_threads=0 / nr=0 / decimate=1 / interlaced=0 / bluray_compat=0 / constrained_intra=0 / bframes=3 / b_pyramid=0 / b_adapt=2 / b_bias=0 / direct=3 / weightb=1 / open_gop=0 / weightp=2 / keyint=250 / keyint_min=25 / scenecut=40 / intra_refresh=0 / rc_lookahead=60 / rc=2pass / mbtree=1 / bitrate=512 / ratetol=1.0 / qcomp=0.70 / qpmin=0 / qpmax=69 / qpstep=4 / cplxblur=20.0 / qblur=0.5 / ip_ratio=1.40 / aq=1:0.60
Encoded date : UTC 2015-07-31 01:16:34
Tagged date : UTC 2015-07-31 01:16:37
Audio
ID : 2
Format : AAC
Format/Info : Advanced Audio Codec
Format profile : LC
Codec ID : 40
Duration : 36mn 29s
Bit rate mode : Variable
Bit rate : 128 Kbps
Maximum bit rate : 150 Kbps
Channel(s) : 2 channels
Channel positions : Front: L R
Sampling rate : 48.0 KHz
Compression mode : Lossy
Stream size : 33.4 MiB (20%)
Encoded date : UTC 2015-07-31 01:16:36
Tagged date : UTC 2015-07-31 01:16:37

Скриншоты






Последний раз редактировалось: Jasur S (2015-12-18 14:54), всего редактировалось 2 раз(а)

Создавать темы 02-Дек-2015 15:16

[Профиль]  [ЛС] 

Jasur S ®

Стаж: 4 года 7 месяцев

Сообщений: 110

Симпатии: 111

Думаю дорамка не всем придется по душе. Сам сюжет совсем отличается от того, нормального к которому мы привыкли. Ну и как принято у японцев он совсем не с хэппи эндом но тем не менее, можно испытать и понять чувства тех людей которые умирают и хотят лишь того малого которого у нас в нашей обычной жизни хватает с лихвой...
Всем приятного просмотра!:)

Создавать темы 02-Дек-2015 15:38

[Профиль]  [ЛС] 
Показать сообщения:    
Ответить на тему

Текущее время: 19-Ноя 09:51

Часовой пояс: UTC + 5



Вы не можете начинать темы
Вы не можете отвечать на сообщения
Вы не можете редактировать свои сообщения
Вы не можете удалять свои сообщения
Вы не можете голосовать в опросах
Вы не можете прикреплять файлы к сообщениям
Вы не можете скачивать файлы