Жду любовь / Looking Forward to Romance / Waiting for love [2/2] [Корея, 2013, комедия, романтика, HDTVRip] [RAW] [KOR+SUB] [720p]

Ответить на тему
 

Jasur S ®

Стаж: 4 года 6 месяцев

Сообщений: 110

Симпатии: 111

-Жду любовь / Looking Forward to Romance / Waiting for love
-
Страна: Южная Корея
Жанр: комедия, романтика
Год выпуска: 2013
Продолжительность: 2 серии
Cубтитры: русские
Оригинальная аудиодорожка: корейский
-
Режиссер: Lee Eun Jin
В ролях:
BoA в роли Чжу Ён Э (25)
Дэниель Чхве в роли Чха Ки Дэ (28)
Им Си Ван в роли Чон Чжин Гука (25)
Ким Чжи Вон в роли Чхве Сэ Ром (26)
О Чжон Сэ в роли Филиппа
Описание: В современном обществе любовь сводит людей с ума. Любовь давно перестала быть частью эмоций. Теперь это игра мозга и разума. Навыки флирта и опыт являются необходимостью, а не дополнением.
Но все-таки, один романтик на планете точно остался! Ён Э пережила жуткое предательство от возлюбленного, из-за чего стала посмешищем всего интернета. Она хочет нормальных отношений. Поэтому и обращается за помощью к пикаперу-ловеласу, который должен консультировать ее посредством чата. Однако, его телефон оказывается совсем у другого человека, который помогает Ён Э разобраться в отношениях на примере своих.
Перевод описания: Grace Elle
-
Доп. информация: Русские субтитры фансаб-группы Мания
-
Качество видео: HDTVRip
Формат видео: AVI
Видео: MPEG4 Video (H264) 1280x720 29.97fps 2621kbps [V: h264 high L5.1, yuv420p, 1280x720, 2621 kb/s]
Аудио: MP3 48000Hz stereo 192kbps [A: mp3, 48000 Hz, stereo, 192 kb/s]]

MediaInfo

General
Complete name : E:\Dramas\Жду любовь 720р\Waiting for Love E01.doramamania 720p.avi
Format : AVI
Format/Info : Audio Video Interleave
File size : 1.30 GiB
Duration : 1h 6mn
Overall bit rate : 2 825 Kbps
Writing application : VirtualDubMod 1.5.10.2 (build 2540/release)
Writing library : VirtualDubMod build 2540/release
Video
ID : 0
Format : AVC
Format/Info : Advanced Video Codec
Format profile : [email protected]
Format settings, CABAC : Yes
Format settings, ReFrames : 4 frames
Codec ID : H264
Duration : 1h 6mn
Bit rate : 2 621 Kbps
Nominal bit rate : 3 000 Kbps
Width : 1 280 pixels
Height : 720 pixels
Display aspect ratio : 16:9
Frame rate mode : Variable
Frame rate : 29.970 fps
Color space : YUV
Chroma subsampling : 4:2:0
Bit depth : 8 bits
Scan type : Progressive
Bits/(Pixel*Frame) : 0.095
Stream size : 1.21 GiB (93%)
Writing library : x264 core 112
Encoding settings : cabac=1 / ref=3 / deblock=1:-1:-1 / analyse=0x3:0x113 / me=hex / subme=6 / psy=1 / psy_rd=1.00:1.00 / mixed_ref=1 / me_range=16 / chroma_me=1 / trellis=1 / 8x8dct=1 / cqm=0 / deadzone=21,11 / fast_pskip=0 / chroma_qp_offset=-4 / threads=12 / sliced_threads=0 / nr=0 / decimate=1 / interlaced=0 / constrained_intra=0 / bframes=3 / b_pyramid=2 / b_adapt=1 / b_bias=1 / direct=3 / weightb=1 / open_gop=0 / weightp=2 / keyint=299 / keyint_min=25 / scenecut=1 / intra_refresh=0 / rc_lookahead=40 / rc=cbr / mbtree=1 / bitrate=3000 / ratetol=1.0 / qcomp=0.60 / qpmin=1 / qpmax=51 / qpstep=4 / vbv_maxrate=3000 / vbv_bufsize=1950 / ip_ratio=1.40 / aq=1:1.00 / nal_hrd=none
Audio
ID : 1
Format : MPEG Audio
Format version : Version 1
Format profile : Layer 3
Mode : Joint stereo
Mode extension : MS Stereo
Codec ID : 55
Codec ID/Hint : MP3
Duration : 1h 6mn
Bit rate mode : Constant
Bit rate : 192 Kbps
Channel(s) : 2 channels
Sampling rate : 48.0 KHz
Compression mode : Lossy
Stream size : 90.8 MiB (7%)
Alignment : Split accross interleaves
Interleave, duration : 33 ms (1.00 video frame)
Interleave, preload duration : 500 ms
Writing library : LAME3.98.2

Скриншоты






Последний раз редактировалось: Jasur S (2015-12-18 14:54), всего редактировалось 2 раз(а)

Создавать темы 02-Дек-2015 15:32

[Профиль]  [ЛС] 

Jasur S ®

Стаж: 4 года 6 месяцев

Сообщений: 110

Симпатии: 111

Сегодня смог выкроить чуток времени и оформить релиз. Надеюсь данная мини-дорамка всем понравится. Приятного просмотра!

Создавать темы 02-Дек-2015 15:45

[Профиль]  [ЛС] 
Показать сообщения:    
Ответить на тему

Текущее время: 23-Окт 18:41

Часовой пояс: UTC + 5



Вы не можете начинать темы
Вы не можете отвечать на сообщения
Вы не можете редактировать свои сообщения
Вы не можете удалять свои сообщения
Вы не можете голосовать в опросах
Вы не можете прикреплять файлы к сообщениям
Вы не можете скачивать файлы