Тайна *Чёрных дроздов* (Вадим Дербенев) [1983, Детектив, DVDRip]

Ответить на тему
 

фазилов ®

Стаж: 3 года 7 месяцев

Сообщений: 310

Симпатии: 344

ТАЙНА *ЧЁРНЫХ ДРОЗДОВ*

Год выпуска: 1983
Жанр: Детектив
Продолжительность: 1:32:08
Режиссер: Вадим Дербенев
В ролях: Ита Эвер (мисс Марпл),Владимир Зельдин (комиссар), Владимир Седов (инспектор), Юрий Мороз , Андрей Харитонов Всеволод Санаев , Любовь Полищук , Вероника Изотова , Ирина Мазуркевич , Борис Новиков , Тамара Носова, Наталья Данилова
Описание: Убит миллионер Джордж Фортескью. Незадолго до смерти на его столе оказываются подстреленные черные дрозды. Под подозрением все члены семьи Фортескью – у каждого был мотив. Вскоре погибают служанка убитого и его вторая жена. Инспектору Нилу с помощью мисс Марпл предстоит как можно раньше найти убийцу, чтобы не допустить следующей трагедии.

Доп. информация: По мотивам романа Агаты Кристи "Карман, полный ржи".
Качество: DVDRip
Формат: AVI
Видео кодек: XviD
Аудио кодек: AC3
Видео: 464x256 (1.81:1), 25 fps, XviD build 47 ~684 kbps avg, 0.23 bit/pixel
Аудио: 48 kHz, AC3 Dolby Digital, 2/0 (L,R) ch, ~448.00 kbps avg

Media-Info

General
Complete name : D:\Мои релизы\Тайна Чёрных дроздов.avi
Format : AVI
Format/Info : Audio Video Interleave
File size : 750 MiB
Duration : 1h 32mn
Overall bit rate : 1 139 Kbps
Writing application : VirtualDubMod 1.5.4.1 (build 2178/release)
Writing library : VirtualDubMod build 2178/release
Video
ID : 0
Format : MPEG-4 Visual
Format profile : Advanced [email protected]
Format settings, BVOP : 1
Format settings, QPel : No
Format settings, GMC : No warppoints
Format settings, Matrix : Custom
Codec ID : XVID
Codec ID/Hint : XviD
Duration : 1h 32mn
Bit rate : 684 Kbps
Width : 464 pixels
Height : 256 pixels
Display aspect ratio : 16:9
Frame rate : 25.000 fps
Color space : YUV
Chroma subsampling : 4:2:0
Bit depth : 8 bits
Scan type : Progressive
Compression mode : Lossy
Bits/(Pixel*Frame) : 0.230
Stream size : 451 MiB (60%)
Writing library : XviD 1.2.0.dev47 (UTC 2006-11-01)
Audio
ID : 1
Format : AC-3
Format/Info : Audio Coding 3
Mode extension : CM (complete main)
Format settings, Endianness : Big
Codec ID : 2000
Duration : 1h 32mn
Bit rate mode : Constant
Bit rate : 448 Kbps
Channel(s) : 2 channels
Channel positions : Front: L R
Sampling rate : 48.0 KHz
Bit depth : 16 bits
Compression mode : Lossy
Stream size : 295 MiB (39%)
Alignment : Split accross interleaves
Interleave, duration : 96 ms (2.40 video frames)
Interleave, preload duration : 96 ms

Скриншоты

Скриншот c названием фильма

Создавать темы 02-Дек-2015 20:38

[Профиль]  [ЛС] 

фазилов ®

Стаж: 3 года 7 месяцев

Сообщений: 310

Симпатии: 344

ac Возможны перерывы в раздаче в связи с частыми отключениями электроэнергии ac aa

Создавать темы 02-Дек-2015 20:44

[Профиль]  [ЛС] 

фазилов ®

Стаж: 3 года 7 месяцев

Сообщений: 310

Симпатии: 344

Модераторы,проверьте релиз пожалуйста. aa

Создавать темы 03-Дек-2015 08:26

[Профиль]  [ЛС] 

Страх

Стаж: 3 года 11 месяцев

Сообщений: 1131

Симпатии: 448

спасибо за пополнение данного раздела, автоматом золото.

Создавать темы 04-Дек-2015 21:56

[Профиль]  [ЛС] 
Показать сообщения:    
Ответить на тему

Текущее время: 20-Сен 19:43

Часовой пояс: UTC + 5



Вы не можете начинать темы
Вы не можете отвечать на сообщения
Вы не можете редактировать свои сообщения
Вы не можете удалять свои сообщения
Вы не можете голосовать в опросах
Вы не можете прикреплять файлы к сообщениям
Вы не можете скачивать файлы