Мой маленький пони. Дружба - это чудо / My Little Pony: Friendship Is Magic / Сезон: 5 / Серии: 1-26 (26) (Джейсон Тиссен / Jayson Thiessen, Джеймс Вуттон / James Wootton) [2015, комедия, семейный, фэнтези, WEB-DLRip 720p] VO (Трина Дубовицкая)

Ответить на тему
 

yarik ®

Стаж: 4 года 6 месяцев

Сообщений: 225

Симпатии: 123

Мой маленький пони. Дружба - это чудо / My Little Pony: Friendship Is Magic Страна: США, Канада
Жанр: комедия, семейный, фэнтези
Сезон: 5
Серии: 1-26 (из 26)
Продолжительность: 00:25:00
Год выпуска: 2015
Перевод: TheDoctor Team
Озвучка:
     Серии 1-18, 21 - одноголосый закадровый (Трина Дубовицкая)
     Серия 19-20, 22-26 - двухголосный закадровый (Трина Дубовицкая и ALEKS KV)
Русские субтитры: есть, отдельные *.ass файлы.
Режиссёр: Джейсон Тиссен / Jayson Thiessen, Джеймс Вуттон / James Wootton
Роли озвучивали: Тара Стронг, Эшли Болл, Андреа Либман, Табита Сен-Джермейн и другие
Описание: Долгожданный пятый сезон мультсериала про маленьких пони. Главная героиня - аликорн Твайлайт Спаркл, любимая ученица Принцессы Селестии, она всё время сидела за книгами и считала, что друзья не нужны. Принцесса Селестия даёт ей задание найти друзей и посылает Твайлайт вместе с её помошником, драконом по имени Спайк, в небольшой городок Понивилль. Там она встречает своих новых друзей: задиристую Рейнбоу Деш, модницу Рарити, трудолюбивую Эплджек, стеснительную Флатершай и очень весёлую и непредсказуемую Пинки Пай. Вместе они решают все возникающие проблемы и идут к новым открытиям. Твайлайт и пятеро её друзей постоянно узнают что-то новое о дружбе.
Качество: WEB-DLRip 720p
Формат: MKV
Видео: AVC, 1280x720, 23.976 fps, 1500 kbps
Аудио Rus: AC3, 48 kHz, 2 ch, 192 kbps
Аудио Eng: AC3, 48 kHz, 2 ch, 192 kbps
Субтитры 1 Rus: Anon2Anon
Субтитры 2 Rus: TheDoctor Team
Субтитры 3 Eng: Anon2Anon

Скриншоты

Список серий

01. Карта меток, часть 1 (The Cutie Map - Part 1)
02. Карта меток, часть 2 (The Cutie Map - Part 2)
03. Замок милый замок (Castle Sweet Castle)
04. Цветение и падение (Bloom and Gloom)
05. Танк, спасибо за воспоминания (Tanks for the Memories)
06. Разыскивается в Эпплузе (Appleoosa's Most Wanted)
07. Новый друг, Дискорда недуг (Make new friends but keep Discord)
08. Потерянное сокровище Грифонстоуна (The Lost Treasure of Griffonstone)
09. Повседневность (Slice of Life)
10. Принцесса Спайк (Princess Spike)
11. Вечеринка обломалась (Party Pooped)
12. Заглаживание вины (Amending Fences)
13. Снятся ли принцессам волшебные овцы (Do Princesses Dream of Magic Sheep)
14. Бутик в Кантерлоте (Canterlot Boutique)
15. Рэрити расследует (Rarity Investigates)
16. Сделано в Мэйнхэттене (Made in Manehattan)
17. Братское единение (Brotherhooves Social)
18. В поисках утраченной метки (Crusaders of the Lost Mark)
19. Пинки Пай кое-что знает (The One Where Pinkie Pie Knows)
20. Разрушители сердец (Hearthbreakers)
21. Мастер испуга (Scare-Master)
22. А как же Дискорд? (What About Discord?)
23. Хуффилды и МакКольты (The Hooffields and Mccolts)
24. Гривое развлечение (The Mane Attraction)
25. Кьюти ремарка, часть 1 (The Cutie Re-Mark - Part 1)
26. Кьюти ремарка, часть 2 (The Cutie Re-Mark - Part 2)

Дополнительная информация

Популярный мультсериал от Hasbro про пони был задуман для детей младшего возраста. Однако по мере выхода сериал оказался популярным и у более взрослой аудитории. В этой раздаче представлена оперативная любительская одноголосая озвучка Трины Дубовицкой, за что ей огромное спасибо, а также оригинальная аудиодорожка.
Исходная раздача с Rutracker.org

Подробные технические данные

General
Unique ID                                : 209165179470470952755288447627693945397 (0x9D5BBF8D15AC21A9A75061A5A5EC7235)
Complete name                            : /home/evgeniy/Videos/My Little Pony/Сезон 5 (озвучка Трины Дубовицкой)/mlp.fim.s05e01.web-dlrip.720p.trina.mkv
Format                                   : Matroska
Format version                           : Version 4 / Version 2
File size                                : 298 MiB
Duration                                 : 22mn 4s
Overall bit rate                         : 1 887 Kbps
Encoded date                             : UTC 2015-04-06 15:15:58
Writing application                      : mkvmerge v7.2.0 ('On Every Street') 32bit built on Sep 13 2014 15:42:11
Writing library                          : libebml v1.3.0 + libmatroska v1.4.1
DURATION                                 : 00:22:04.416000000
NUMBER_OF_FRAMES                         : 41388
NUMBER_OF_BYTES                          : 31785984
_STATISTICS_WRITING_APP                  : mkvmerge v7.2.0 ('On Every Street') 32bit built on Sep 13 2014 15:42:11
_STATISTICS_WRITING_DATE_UTC             : 2015-04-06 15:15:58
_STATISTICS_TAGS                         : BPS DURATION NUMBER_OF_FRAMES NUMBER_OF_BYTES
Video
ID                                       : 1
Format                                   : AVC
Format/Info                              : Advanced Video Codec
Format profile                           : [email protected]
Format settings, CABAC                   : Yes
Format settings, ReFrames                : 9 frames
Codec ID                                 : V_MPEG4/ISO/AVC
Duration                                 : 22mn 4s
Bit rate                                 : 1 500 Kbps
Width                                    : 1 280 pixels
Height                                   : 720 pixels
Display aspect ratio                     : 16:9
Frame rate mode                          : Constant
Frame rate                               : 23.976 fps
Color space                              : YUV
Chroma subsampling                       : 4:2:0
Bit depth                                : 8 bits
Scan type                                : Progressive
Bits/(Pixel*Frame)                       : 0.068
Stream size                              : 231 MiB (78%)
Writing library                          : x264 core 142 r2479 dd79a61
Encoding settings                        : cabac=1 / ref=9 / deblock=1:1:1 / analyse=0x3:0x133 / me=tesa / subme=11 / psy=1 / psy_rd=0.40:0.00 / mixed_ref=1 / me_range=24 / chroma_me=1 / trellis=2 / 8x8dct=1 / cqm=0 / deadzone=21,11 / fast_pskip=0 / chroma_qp_offset=-2 / threads=12 / lookahead_threads=3 / sliced_threads=0 / nr=0 / decimate=1 / interlaced=0 / bluray_compat=0 / constrained_intra=0 / bframes=16 / b_pyramid=2 / b_adapt=2 / b_bias=0 / direct=3 / weightb=1 / open_gop=0 / weightp=2 / keyint=240 / keyint_min=24 / scenecut=40 / intra_refresh=0 / rc_lookahead=60 / rc=2pass / mbtree=1 / bitrate=1500 / ratetol=1.0 / qcomp=0.60 / qpmin=0 / qpmax=69 / qpstep=4 / cplxblur=20.0 / qblur=0.5 / vbv_maxrate=62500 / vbv_bufsize=78125 / nal_hrd=none / filler=0 / ip_ratio=1.40 / aq=1:0.60
Language                                 : English
Default                                  : Yes
Forced                                   : No
Color primaries                          : BT.709
Transfer characteristics                 : BT.709
Matrix coefficients                      : BT.709
Audio #1
ID                                       : 2
Format                                   : AC-3
Format/Info                              : Audio Coding 3
Mode extension                           : CM (complete main)
Format settings, Endianness              : Big
Codec ID                                 : A_AC3
Duration                                 : 22mn 4s
Bit rate mode                            : Constant
Bit rate                                 : 192 Kbps
Channel(s)                               : 2 channels
Channel positions                        : Front: L R
Sampling rate                            : 48.0 KHz
Bit depth                                : 16 bits
Compression mode                         : Lossy
Delay relative to video                  : -83ms
Stream size                              : 30.3 MiB (10%)
Title                                    : Трина Дубовицкая
Language                                 : Russian
Default                                  : Yes
Forced                                   : No
Audio #2
ID                                       : 3
Format                                   : AC-3
Format/Info                              : Audio Coding 3
Mode extension                           : CM (complete main)
Format settings, Endianness              : Big
Codec ID                                 : A_AC3
Duration                                 : 22mn 4s
Bit rate mode                            : Constant
Bit rate                                 : 192 Kbps
Channel(s)                               : 2 channels
Channel positions                        : Front: L R
Sampling rate                            : 48.0 KHz
Bit depth                                : 16 bits
Compression mode                         : Lossy
Delay relative to video                  : -83ms
Stream size                              : 30.3 MiB (10%)
Title                                    : Оригинал
Language                                 : English
Default                                  : No
Forced                                   : No


Последний раз редактировалось: yarik (2017-07-27 12:49), всего редактировалось 1 раз

Создавать темы 03-Дек-2015 14:53

[Профиль]  [ЛС] 

Ravilya

Стаж: 2 года 3 месяца

Сообщений: 22

Симпатии: 33

Помогу с раздачей)))

Создавать темы 06-Дек-2015 16:32

[Профиль]  [ЛС] 

yarik ®

Стаж: 4 года 6 месяцев

Сообщений: 225

Симпатии: 123

961213Помогу с раздачей)))
Благодарю :)

Создавать темы 06-Дек-2015 16:33

[Профиль]  [ЛС] 

root

Стаж: 5 лет 2 месяца

Сообщений: 592

Симпатии: 172

yarik, Постер хорош :)

Создавать темы 27-Дек-2015 01:40

[Профиль]  [ЛС] 
Показать сообщения:    
Ответить на тему

Текущее время: 22-Авг 02:28

Часовой пояс: UTC + 5



Вы не можете начинать темы
Вы не можете отвечать на сообщения
Вы не можете редактировать свои сообщения
Вы не можете удалять свои сообщения
Вы не можете голосовать в опросах
Вы не можете прикреплять файлы к сообщениям
Вы не можете скачивать файлы