SOS: Спасите наши шкуры / SOS: Save Our Skins (Кент Соби) [2014, Великобритания, Канада, США, ужасы, комедия, DVDRip] (VO)

Ответить на тему
 

lucky999 ®

Стаж: 2 года 1 месяц

Сообщений: 32

Симпатии: 43

SOS: Спасите наши шкуры / SOS: Save Our Skins
Страна: Великобритания, Канада, США
Жанр: ужасы, комедия
Год выпуска: 2014
Продолжительность: 01:25:41
Перевод: Любительский (одноголосый закадровый) Barin101
Cубтитры: нет
Режиссер: Кент Соби
В ролях: Том Болтон, Michael Chwastiak, Chris Hayward, Джеймс МакДугалл, Dave Roberts, Нат Саундерс, Hannah Spear
Описание: Двое странных парней просыпаются в гостинице в Нью-Йорке и обнаруживают, что на Земле все исчезли.
Телефоны не работают, интернета нет, улицы пустынны. А по телевизору время от времени появляется видеоролик с башней и странной чёрной фигурой. Поняв, что они на Земле не одни, наши герои отправляются на поиски других выживших.
Однако ребятам предстоит пройти долгий путь, прежде чем они узнают, что произошло и куда все пропали...
Доп. информация: IMDB рейтинг: 5.2/10
КиноПоиск рейтинг: 0.0/10
Качество видео: DVDRip
Формат видео: AVI
Видео: xvid, 1898 Kbps, 720x384
Аудио: Русский, Английский: AC3, 2 ch, 256 kbps

MediaInfo

General
Complete name : D:\torrent\SOS Save Our Skins (2014) DVDRip.avi
Format : AVI
Format/Info : Audio Video Interleave
Format profile : OpenDML
File size : 1.45 GiB
Duration : 1h 25mn
Overall bit rate : 2 429 Kbps
Writing application : XviD4PSP 6.0 / 54.29.105
Video
ID : 0
Format : xvid
Codec ID : xvid
Duration : 1h 25mn
Bit rate : 1 898 Kbps
Width : 720 pixels
Height : 384 pixels
Display aspect ratio : 1.85:1
Frame rate : 23.976 fps
Bits/(Pixel*Frame) : 0.286
Stream size : 1.14 GiB (78%)
Audio #1
ID : 1
Format : AC-3
Format/Info : Audio Coding 3
Mode extension : CM (complete main)
Format settings, Endianness : Big
Codec ID : 2000
Duration : 1h 25mn
Bit rate mode : Constant
Bit rate : 256 Kbps
Channel(s) : 2 channels
Channel positions : Front: L R
Sampling rate : 48.0 KHz
Bit depth : 16 bits
Compression mode : Lossy
Stream size : 157 MiB (11%)
Alignment : Aligned on interleaves
Interleave, duration : 32 ms (0.77 video frame)
Audio #2
ID : 2
Format : AC-3
Format/Info : Audio Coding 3
Mode extension : CM (complete main)
Format settings, Endianness : Big
Codec ID : 2000
Duration : 1h 25mn
Bit rate mode : Constant
Bit rate : 256 Kbps
Channel(s) : 2 channels
Channel positions : Front: L R
Sampling rate : 48.0 KHz
Bit depth : 16 bits
Compression mode : Lossy
Stream size : 157 MiB (11%)
Alignment : Aligned on interleaves
Interleave, duration : 32 ms (0.77 video frame)

Скриншот c названием фильма

Скриншоты

Создавать темы 03-Дек-2015 16:32

[Профиль]  [ЛС] 
Показать сообщения:    
Ответить на тему

Текущее время: 23-Окт 01:57

Часовой пояс: UTC + 5



Вы не можете начинать темы
Вы не можете отвечать на сообщения
Вы не можете редактировать свои сообщения
Вы не можете удалять свои сообщения
Вы не можете голосовать в опросах
Вы не можете прикреплять файлы к сообщениям
Вы не можете скачивать файлы