Вдали от обезумевшей толпы / Far from the Madding Crowd (Томас Винтерберг) [2015, Великобритания, США, драма, мелодрама, BDRip-AVC] (Dub : BBC Films, Fox Searchlight Pictures, DNA Films.) (Sub Rus + Original Eng)

Ответить на тему
 

ziyod ®

Стаж: 7 лет 8 месяцев

Сообщений: 367

Симпатии: 60

Вдали от обезумевшей толпы / Far from the Madding Crowd
Страна: Великобритания, США
Жанр: драма, мелодрама
Год выпуска: 2015
Продолжительность: 01:58:41
Перевод: Профессиональный (дублированный) Доп. инфо о переводе BBC Films, Fox Searchlight Pictures, DNA Films.
Cубтитры: русские
Оригинальная аудиодорожка: английский
Режиссер: Томас Винтерберг
В ролях: Кэри Маллиган (Bathsheba Everdene), Маттиас Шонартс (Gabriel Oak), Майкл Шин (William Boldwood), Джуно Темпл (Fanny Robbin), Том Стёрридж (Sergeant Francis Troy), Тилли Восберг (Mrs. Hurst), Марк Уингетт (Bailiff #1), Дориан Лок (Bailiff #2), Сэм Филлипс (Sergeant Doggett), Брэдли Холл (Joseph Poorgrass), Хилтон МакРэй (Jacob Smallbury), Джессика Барден (Liddy)
Описание: Унаследовав от дядюшки богатую ферму, юная Батшеба Эвердин энергично берется за дело, набрав себе рабочих. Берет она и разорившегося фермера Габриэля Оука - человека опытного и честного. Габриэль в свое время просил её руки, но потерпел неудачу. Теперь ей предлагает руку и сердце сосед, зажиточный фермер Уильям Болдвуд, но своенравная Батшеба пока не соглашается стать женой, попросив себе время на раздумья. Встреча с самовлюбленным красавцем сержантом Фрэнком Троем становится роковой для Батшебы...
Качество видео: BDRip-AVC
Формат видео: MKV
Видео: AVC, 1056x440 (2.40:1), 1734 kbps, 23,976 fps, 0,156 bpp
Аудио: AC3 / 5.1 / 48 kHz / 448 kbps / 16 bit | RUS
Аудио 2: AC3 / 5.1 / 48 kHz / 448 kbps / 16 bit | ENG
Формат субтитров: softsub (SRT)

MediaInfo

General
Unique ID : 206827775873894826131644947653604345266 (0x9B9994A802FCA41EB557CCB96E3B05B2)
Complete name : Vdali.ot.Obezumevshey.Tolpy.2015.DUAL.BDRip.x264.-HELLYWOOD.mkv
Format : Matroska
Format version : Version 4 / Version 2
File size : 2.18 GiB
Duration : 1h 58mn
Overall bit rate : 2 632 Kbps
Movie name : Far from the Madding Crowd (2015) - HELLYWOOD
Encoded date : UTC 2015-09-27 10:16:21
Writing application : mkvmerge v5.9.0 ('On The Loose') built on Dec 15 2012 16:39:58
Writing library : libebml v1.3.0 + libmatroska v1.4.0
Video
ID : 1
Format : AVC
Format/Info : Advanced Video Codec
Format profile : [email protected]
Format settings, CABAC : Yes
Format settings, ReFrames : 10 frames
Codec ID : V_MPEG4/ISO/AVC
Duration : 1h 58mn
Bit rate : 1 734 Kbps
Width : 1 056 pixels
Height : 440 pixels
Display aspect ratio : 2.40:1
Frame rate mode : Constant
Frame rate : 23.976 fps
Color space : YUV
Chroma subsampling : 4:2:0
Bit depth : 8 bits
Scan type : Progressive
Bits/(Pixel*Frame) : 0.156
Stream size : 1.40 GiB (64%)
Title : potroks
Writing library : x264 core 148 r2597M e86f3a1
Encoding settings : cabac=1 / ref=10 / deblock=1:-2:-2 / analyse=0x3:0x133 / me=umh / subme=11 / psy=1 / psy_rd=1.00:0.10 / mixed_ref=1 / me_range=48 / chroma_me=1 / trellis=2 / 8x8dct=1 / cqm=0 / deadzone=21,11 / fast_pskip=0 / chroma_qp_offset=-3 / threads=10 / lookahead_threads=2 / sliced_threads=0 / nr=0 / decimate=1 / interlaced=0 / bluray_compat=0 / constrained_intra=0 / bframes=11 / b_pyramid=2 / b_adapt=2 / b_bias=0 / direct=3 / weightb=1 / open_gop=0 / weightp=2 / keyint=250 / keyint_min=23 / scenecut=40 / intra_refresh=0 / rc=2pass / mbtree=0 / bitrate=1734 / ratetol=1.0 / qcomp=0.70 / qpmin=0 / qpmax=69 / qpstep=4 / cplxblur=20.0 / qblur=0.5 / ip_ratio=1.40 / pb_ratio=1.30 / aq=1:0.80
Language : English
Default : Yes
Forced : No
Audio #1
ID : 2
Format : AC-3
Format/Info : Audio Coding 3
Mode extension : CM (complete main)
Format settings, Endianness : Big
Codec ID : A_AC3
Duration : 1h 58mn
Bit rate mode : Constant
Bit rate : 448 Kbps
Channel(s) : 6 channels
Channel positions : Front: L C R, Side: L R, LFE
Sampling rate : 48.0 KHz
Compression mode : Lossy
Stream size : 380 MiB (17%)
Title : Dub | DD 5.1 @ 448 kbps - Blu-Ray CEE
Language : Russian
Default : Yes
Forced : No
Audio #2
ID : 3
Format : AC-3
Format/Info : Audio Coding 3
Mode extension : CM (complete main)
Format settings, Endianness : Big
Codec ID : A_AC3
Duration : 1h 58mn
Bit rate mode : Constant
Bit rate : 448 Kbps
Channel(s) : 6 channels
Channel positions : Front: L C R, Side: L R, LFE
Sampling rate : 48.0 KHz
Compression mode : Lossy
Stream size : 380 MiB (17%)
Title : Original | DD 5.1 @ 448 kbps
Language : English
Default : No
Forced : No
Text #1
ID : 4
Format : UTF-8
Codec ID : S_TEXT/UTF8
Codec ID/Info : UTF-8 Plain Text
Title : Forced
Language : Russian
Default : Yes
Forced : No
Text #2
ID : 5
Format : UTF-8
Codec ID : S_TEXT/UTF8
Codec ID/Info : UTF-8 Plain Text
Language : Russian
Default : No
Forced : No
Text #3
ID : 6
Format : UTF-8
Codec ID : S_TEXT/UTF8
Codec ID/Info : UTF-8 Plain Text
Title : Forced
Language : Ukrainian
Default : No
Forced : No
Text #4
ID : 7
Format : UTF-8
Codec ID : S_TEXT/UTF8
Codec ID/Info : UTF-8 Plain Text
Language : Ukrainian
Default : No
Forced : No
Text #5
ID : 8
Format : UTF-8
Codec ID : S_TEXT/UTF8
Codec ID/Info : UTF-8 Plain Text
Title : Full
Language : English
Default : No
Forced : No
Text #6
ID : 9
Format : UTF-8
Codec ID : S_TEXT/UTF8
Codec ID/Info : UTF-8 Plain Text
Title : SDH
Language : English
Default : No
Forced : No
Text #7
ID : 10
Format : UTF-8
Codec ID : S_TEXT/UTF8
Codec ID/Info : UTF-8 Plain Text
Title : SDH-Colored
Language : English
Default : No
Forced : No
Menu
00:00:00.000 : :(01)00:00:00:000
00:05:56.605 : :(02)00:05:56:605
00:09:49.838 : :(03)00:09:49:838
00:13:00.070 : :(04)00:13:00:070
00:15:54.577 : :(05)00:15:54:577
00:19:38.134 : :(06)00:19:38:134
00:23:18.063 : :(07)00:23:18:063
00:27:33.651 : :(08)00:27:33:651
00:30:28.867 : :(09)00:30:28:867
00:33:16.160 : :(10)00:33:16:160
00:35:45.768 : :(11)00:35:45:768
00:39:18.105 : :(12)00:39:18:105
00:42:28.045 : :(13)00:42:28:045
00:47:18.960 : :(14)00:47:18:960
00:53:26.577 : :(15)00:53:26:577
00:56:12.659 : :(16)00:56:12:659
01:02:16.648 : :(17)01:02:16:648
01:05:02.773 : :(18)01:05:02:773
01:08:28.310 : :(19)01:08:28:311
01:10:33.645 : :(20)01:10:33:645
01:13:16.809 : :(21)01:13:16:809
01:16:17.738 : :(22)01:16:17:738
01:19:39.149 : :(23)01:19:39:149
01:22:38.578 : :(24)01:22:38:578
01:25:45.805 : :(25)01:25:45:805
01:28:11.953 : :(26)01:28:11:953
01:33:43.242 : :(27)01:33:43:242
01:38:35.117 : :(28)01:38:35:117
01:41:54.942 : :(29)01:41:54:942
01:45:05.297 : :(30)01:45:05:297
01:48:55.403 : :(31)01:48:55:403
01:55:26.543 : :(32)01:55:26:543

Скриншоты



Создавать темы 03-Дек-2015 18:20

[Профиль]  [ЛС] 

Cry

Стаж: 5 лет 5 месяцев

Сообщений: 40

Можете встать на раздачу?

Создавать темы 18-Авг-2016 06:26

[Профиль]  [ЛС] 
Показать сообщения:    
Ответить на тему

Текущее время: 20-Ноя 14:43

Часовой пояс: UTC + 5



Вы не можете начинать темы
Вы не можете отвечать на сообщения
Вы не можете редактировать свои сообщения
Вы не можете удалять свои сообщения
Вы не можете голосовать в опросах
Вы не можете прикреплять файлы к сообщениям
Вы не можете скачивать файлы