Любовь и другие лекарства / Love and Other Drugs (Эдвард Цвик) [2011, США, Драма, мелодрамма, комедия, HDRip] (Dub) (Sub Rus + Original Eng)

Ответить на тему
 

Чингиз ®

Стаж: 5 лет 9 месяцев

Сообщений: 37

Симпатии: 20

Любовь и другие лекарства / Love and Other Drugs
Страна: США
Жанр: Драма, мелодрамма, комедия
Год выпуска: 2011
Продолжительность: 01:53:00
Перевод: Профессиональный (дублированный)
Cубтитры: русские
Оригинальная аудиодорожка: английский
Режиссер: Эдвард Цвик
В ролях: Джейк Джилленхол, Энн Хэтэуэй, Джуди Грир, Оливер Платт, Хэнк Азария, Джош Гад, Гэбриел Махт, Джордж Сигал, Джилл Клейбёрг, Кейт Дженнингс Грант
Описание: Джейми Рэнделл (Джейк Джилленхол) распространяет лекарство от депрессии. На одном из медицинских приемов он знакомится с Мегги и заводит с ней легкую интрижку. Но в процессе общения с этой удивительной девушкой, Джейми сталкивается с жестокой правдой. Не от всех болезней есть лекарство. Но, пожалуй, самая приятная из этих болезней — любовь.
Доп. информация: Бюджет $30 000 000
Премьера
27 января 2011 (РФ)
4 ноября 2010 (мир)
Дата выхода на DVD 24 февраля 2011
Прокатчик Двадцатый Век Фокс СНГ
Официальный слоган Accros aux nuits sans lendemain ou dépendants l'un de l'autre? (Addicted to one-night stands or dependent on one another?)
Российский слоган Иногда человек, которого ты не замечаешь, становится тем, кто нужен тебе больше всего
Качество видео: HDRip
Формат видео: AVI
Видео: Video: Xvid 704x384 23.98fps 1870kbps [Video 0]
Аудио: Dolby AC3 48000Hz 6ch 448kbps [Audio 1]
Аудио 2: Dolby AC3 48000Hz 6ch 448kbps [Audio 2]
Формат субтитров: softsub (SRT)

MediaInfo

General
Complete name : E:\Кино\Для закачки\Ljubov.I.Drugie.Lekarstva.2010.DUAL.BDRip.XviD.AC3.-HQ-ViDEO\Ljubov.I.Drugie.Lekarstva.2010.DUAL.BDRip.XviD.AC3.-HQ-ViDEO.avi
Format : AVI
Format/Info : Audio Video Interleave
Format profile : OpenDML
File size : 2.19 GiB
Duration : 1h 52mn
Overall bit rate : 2 785 Kbps
Movie name : Любовь и другие лекарства / Love and Other Drugs (2010)
Director : Ulanovka (BDRemux)
Writing application : VirtualDubMod 1.5.10.2 (build 2540/release)
Copyright : HQ-ViDEO (www.hq-video.org)
Comment : 28.02.2011
Video
ID : 0
Format : MPEG-4 Visual
Format profile : Advanced [email protected]
Format settings, BVOP : 1
Format settings, QPel : No
Format settings, GMC : No warppoints
Format settings, Matrix : Custom
Codec ID : XVID
Codec ID/Hint : XviD
Duration : 1h 52mn
Bit rate : 1 871 Kbps
Width : 704 pixels
Height : 384 pixels
Display aspect ratio : 16:9
Frame rate : 23.976 fps
Color space : YUV
Chroma subsampling : 4:2:0
Bit depth : 8 bits
Scan type : Progressive
Compression mode : Lossy
Bits/(Pixel*Frame) : 0.289
Stream size : 1.47 GiB (67%)
Writing library : XviD 61
Audio #1
ID : 1
Format : AC-3
Format/Info : Audio Coding 3
Mode extension : CM (complete main)
Codec ID : 2000
Duration : 1h 52mn
Bit rate mode : Constant
Bit rate : 448 Kbps
Channel(s) : 6 channels
Channel positions : Front: L C R, Side: L R, LFE
Sampling rate : 48.0 KHz
Bit depth : 16 bits
Compression mode : Lossy
Stream size : 360 MiB (16%)
Alignment : Split accross interleaves
Interleave, duration : 42 ms (1.00 video frame)
Interleave, preload duration : 500 ms
Audio #2
ID : 2
Format : AC-3
Format/Info : Audio Coding 3
Mode extension : CM (complete main)
Codec ID : 2000
Duration : 1h 52mn
Bit rate mode : Constant
Bit rate : 448 Kbps
Channel(s) : 6 channels
Channel positions : Front: L C R, Side: L R, LFE
Sampling rate : 48.0 KHz
Bit depth : 16 bits
Compression mode : Lossy
Stream size : 360 MiB (16%)
Alignment : Split accross interleaves
Interleave, duration : 42 ms (1.00 video frame)
Interleave, preload duration : 500 ms

Скриншоты

Создавать темы 04-Дек-2015 17:12

[Профиль]  [ЛС] 

odissey

Стаж: 4 года 4 месяца

Сообщений: 3

Симпатии: 1

Помогите скачать

Создавать темы 31-Янв-2016 00:14

[Профиль]  [ЛС] 
Показать сообщения:    
Ответить на тему

Текущее время: 18-Ноя 22:45

Часовой пояс: UTC + 5



Вы не можете начинать темы
Вы не можете отвечать на сообщения
Вы не можете редактировать свои сообщения
Вы не можете удалять свои сообщения
Вы не можете голосовать в опросах
Вы не можете прикреплять файлы к сообщениям
Вы не можете скачивать файлы