Ночи в стиле Буги / Boogie nights (Пол Томас Андерсон/ Paul Thomas Anderson) [1997, США, драма, биография, HDRip] (MVO)

Ответить на тему
 

Чингиз ®

Стаж: 5 лет 8 месяцев

Сообщений: 37

Симпатии: 20

Ночи в стиле Буги / Boogie nights
Страна: США
Жанр: драма, биография
Год выпуска: 1997
Продолжительность: 02:35:35
Перевод: Профессиональный (многоголосый закадровый)
Cубтитры: нет
Режиссер: Пол Томас Андерсон/ Paul Thomas Anderson
В ролях: Марк Уолберг, Джулиан Мур, Берт Рейнолдс, Джон Рейли, Уильям Мэйси, Дон Чидл, Хизер Грэм, Филип Сеймур Хоффман, Альфред Молина, Луис Гузман, Мелора Уолтерс, Томас Джейн, Нина Хартли, Вероника Харт
Описание: Эта история начинается в 1977 году в долине Сан-Фернандо, когда всемирно известный режиссёр порнофильмов Джек Хорнер встретил в ресторане ночного клуба молодого официанта Эдди Адамса и понял, что этот юноша — как раз то, что ему в данный момент необходимо.
Интуиция не подвела опытного порномастера: Эдди оказался настоящим кладом для того рода деятельности, которым занимался Хорнер. На пробных съёмках с самой опытной порнозвездой Эмбер Эдди показал себя мастером высшего класса, и началась его «раскрутка» в качестве звезды порно и триумфальное шествие по стране фильмов с новой звездой. А в карманы Хорнера и его сподвижников потекли огромные деньги.
Но влюблённая в него Эмбер сама способствовала началу падения этой удивительной карьеры. И случилось это, когда она, шутя, познакомила Дирка с наркотиками…
Качество видео: HDRip
Формат видео: AVI
Видео: 720x304 (2.37:1), 23.976 fps, XviD build 73 ~1546 kbps avg, 0.29 bit/pixel
Аудио: 48 kHz, AC3 Dolby Digital, 3/2 (L,C,R,l,r) + LFE ch, ~448 kbps

MediaInfo

General
Complete name : E:\Кино\Для закачки\Boogie.Nights.1997_HDRip__[scarabey.org].avi
Format : AVI
Format/Info : Audio Video Interleave
Format profile : OpenDML
File size : 2.18 GiB
Duration : 2h 35mn
Overall bit rate : 2 002 Kbps
Writing application : VirtualDubMod 1.5.10.3 | www.virtualdub-fr.org || (build 2550/release)
Writing library : VirtualDubMod build 2550/release
Video
ID : 0
Format : MPEG-4 Visual
Format profile : Advanced [email protected]
Format settings, BVOP : 1
Format settings, QPel : No
Format settings, GMC : No warppoints
Format settings, Matrix : Custom
Codec ID : XVID
Codec ID/Hint : XviD
Duration : 2h 35mn
Bit rate : 1 542 Kbps
Width : 720 pixels
Height : 304 pixels
Display aspect ratio : 2.35:1
Frame rate : 23.976 fps
Color space : YUV
Chroma subsampling : 4:2:0
Bit depth : 8 bits
Scan type : Progressive
Compression mode : Lossy
Bits/(Pixel*Frame) : 0.294
Stream size : 1.68 GiB (77%)
Writing library : XviD 73
Audio
ID : 1
Format : AC-3
Format/Info : Audio Coding 3
Mode extension : CM (complete main)
Codec ID : 2000
Duration : 2h 35mn
Bit rate mode : Constant
Bit rate : 448 Kbps
Channel(s) : 6 channels
Channel positions : Front: L C R, Side: L R, LFE
Sampling rate : 48.0 KHz
Bit depth : 16 bits
Compression mode : Lossy
Stream size : 499 MiB (22%)
Alignment : Split accross interleaves
Interleave, duration : 42 ms (1.00 video frame)
Interleave, preload duration : 500 ms

Скриншоты

Создавать темы 04-Дек-2015 17:26

[Профиль]  [ЛС] 
Показать сообщения:    
Ответить на тему

Текущее время: 21-Окт 21:01

Часовой пояс: UTC + 5



Вы не можете начинать темы
Вы не можете отвечать на сообщения
Вы не можете редактировать свои сообщения
Вы не можете удалять свои сообщения
Вы не можете голосовать в опросах
Вы не можете прикреплять файлы к сообщениям
Вы не можете скачивать файлы