Жизнь за гранью / After.Life (Агнешка Войтович-Восло / Agneshka Voytovich-Voslo) [2009, США, Драма, триллер, детектив, ужасы, HDRip] (MVO) (Sub Rus)

Ответить на тему
 

Чингиз ®

Стаж: 5 лет 6 месяцев

Сообщений: 37

Симпатии: 20

Жизнь за гранью / After.Life
Страна: США
Жанр: Драма, триллер, детектив, ужасы
Год выпуска: 2009
Продолжительность: 01:42:53
Перевод: Профессиональный (многоголосый закадровый)
Cубтитры: русские
Режиссер: Агнешка Войтович-Восло / Agneshka Voytovich-Voslo
В ролях: Кристина Риччи, Лиам Нисон, Джастин Лонг, Чандлер Кентербери, Селия Уэстон, Луз Александра, Джош Чарльз, Розмари Мерфи, Мэлаки МакКорт, Шулер Хенсли
Описание: В похоронном бюро «приходит в себя» жертва автомобильной аварии Анна. Накануне она поссорилась с возлюбленным. Сотрудник бюро Элиот говорит, что она мертва и он должен готовить тело к погребению. А общается он с ней якобы оттого, что «умеет разговаривать» с умершими, чья душа не отбыла еще окончательно на тот свет. Но Анна не верит ему, считает себя живой и пытается бежать. Не одной ей доведется попасть на стол к Элиоту.
Доп. информация: Бюджет $4 500 000
Премьера
2 декабря 2010 (РФ)
7 ноября 2009 (мир)
Дата выхода на DVD 20 января 2011
Прокатчик Люксор
Официальный слоган Life is the symptom. Death is the cure
Российский слоган Дикий страх... сильнее боли!
Качество видео: HDRip
Формат видео: MKV
Видео: MPEG4 Video (H264) 960x400 23.98fps [English (Video 1) [Default]]
Аудио: Dolby AC3 48000Hz 6ch [Russian, DUB (Audio 1) [Forced]]
Аудио 2: Dolby AC3 48000Hz 6ch [Russian, AVO (Audio 2)]
Формат субтитров: softsub (SRT)

MediaInfo

General
Unique ID : 55302030801810789221900843659850143979 (0x299AC8A1431440BA90D4D6989DFBD8EB)
Complete name : E:\Кино\Для закачки\After.Life.2009.BDRip.AVC.BluRay.x264-LEONARDO_[scarabey.org].mkv
Format : Matroska
Format version : Version 2
File size : 1.50 GiB
Duration : 1h 42mn
Overall bit rate : 2 081 Kbps
Movie name : -=LEONARDO=-
Encoded date : UTC 2014-03-05 14:21:02
Writing application : mkvmerge v5.0.1 ('Es ist Sommer') built on Oct 23 2011 00:46:40
Writing library : libebml v1.2.2 + libmatroska v1.3.0
Video
ID : 1
Format : AVC
Format/Info : Advanced Video Codec
Format profile : [email protected]
Format settings, CABAC : Yes
Format settings, ReFrames : 8 frames
Codec ID : V_MPEG4/ISO/AVC
Duration : 1h 42mn
Bit rate : 1 272 Kbps
Width : 960 pixels
Height : 400 pixels
Display aspect ratio : 2.40:1
Frame rate : 23.976 fps
Color space : YUV
Chroma subsampling : 4:2:0
Bit depth : 8 bits
Scan type : Progressive
Bits/(Pixel*Frame) : 0.138
Stream size : 936 MiB (61%)
Writing library : x264 core 125 r2208 d9d2288
Encoding settings : cabac=1 / ref=8 / deblock=1:-3:-3 / analyse=0x3:0x133 / me=umh / subme=11 / psy=1 / psy_rd=1.00:0.00 / mixed_ref=1 / me_range=32 / chroma_me=1 / trellis=2 / 8x8dct=1 / cqm=0 / deadzone=21,11 / fast_pskip=0 / chroma_qp_offset=-2 / threads=12 / lookahead_threads=2 / sliced_threads=0 / nr=0 / decimate=1 / interlaced=0 / bluray_compat=0 / constrained_intra=0 / bframes=8 / b_pyramid=2 / b_adapt=2 / b_bias=0 / direct=1 / weightb=1 / open_gop=0 / weightp=2 / keyint=250 / keyint_min=23 / scenecut=40 / intra_refresh=0 / rc=crf / mbtree=0 / crf=17.5 / qcomp=0.60 / qpmin=0 / qpmax=69 / qpstep=4 / ip_ratio=1.40 / pb_ratio=1.30 / aq=2:1.00
Language : English
Default : Yes
Forced : No
Audio #1
ID : 2
Format : AC-3
Format/Info : Audio Coding 3
Mode extension : CM (complete main)
Codec ID : A_AC3
Duration : 1h 42mn
Bit rate mode : Constant
Bit rate : 384 Kbps
Channel(s) : 6 channels
Channel positions : Front: L C R, Side: L R, LFE
Sampling rate : 48.0 KHz
Bit depth : 16 bits
Compression mode : Lossy
Stream size : 283 MiB (18%)
Title : DUB
Language : Russian
Default : Yes
Forced : Yes
Audio #2
ID : 3
Format : AC-3
Format/Info : Audio Coding 3
Mode extension : CM (complete main)
Codec ID : A_AC3
Duration : 1h 42mn
Bit rate mode : Constant
Bit rate : 384 Kbps
Channel(s) : 6 channels
Channel positions : Front: L C R, Side: L R, LFE
Sampling rate : 48.0 KHz
Bit depth : 16 bits
Compression mode : Lossy
Stream size : 283 MiB (18%)
Title : AVO
Language : Russian
Default : No
Forced : No
Text #1
ID : 4
Format : UTF-8
Codec ID : S_TEXT/UTF8
Codec ID/Info : UTF-8 Plain Text
Title : notabenoid
Language : Russian
Default : No
Forced : No
Text #2
ID : 5
Format : UTF-8
Codec ID : S_TEXT/UTF8
Codec ID/Info : UTF-8 Plain Text
Language : English
Default : No
Forced : No
Menu
00:00:00.000 : en:1. Somewhere Else
00:03:59.114 : en:2. Final Respects
00:10:38.805 : en:3. Misunderstanding
00:14:13.978 : en:4. Massive Internal Trauma
00:20:48.038 : en:5. Devastating News
00:30:44.634 : en:6. "The Dead Can't Harm the Dead"
00:41:26.901 : en:7. Feels More Like Hell
00:47:25.342 : en:8. "You Will Never Live Again"
00:59:30.859 : en:9. Ghostly Vision
01:05:01.231 : en:10. Nothing to Say
01:11:23.362 : en:11. "You Can't Help Her Anymore"
01:17:07.456 : en:12. Too Scared to Love
01:24:21.265 : en:13. The Funeral
01:29:47.674 : en:14. Premature Burial
01:34:39.382 : en:15. The Night Anna Came Out of the Grave
01:37:14.787 : en:16. End Credits

Скриншоты

Создавать темы 04-Дек-2015 17:41

[Профиль]  [ЛС] 

ulkiora5

Стаж: 4 года 2 месяца

Сообщений: 50

Симпатии: 25

странно что никто не хвалит третий скрин, или некрофилов уже не осталось?

Создавать темы 04-Дек-2015 18:18

[Профиль]  [ЛС] 

Чингиз ®

Стаж: 5 лет 6 месяцев

Сообщений: 37

Симпатии: 20

ag ay
961014странно что никто не хвалит третий скрин, или некрофилов уже не осталось?

Создавать темы 04-Дек-2015 18:32

[Профиль]  [ЛС] 
Показать сообщения:    
Ответить на тему

Текущее время: 20-Авг 14:58

Часовой пояс: UTC + 5



Вы не можете начинать темы
Вы не можете отвечать на сообщения
Вы не можете редактировать свои сообщения
Вы не можете удалять свои сообщения
Вы не можете голосовать в опросах
Вы не можете прикреплять файлы к сообщениям
Вы не можете скачивать файлы