Пришествие Дьявола / Devil's Due (Мэттью Беттинелли / Matthew Bettinelli, Тайлер Джиллетт / Tyler Gillett) [2013, США, Ужасы, BDRip-AVC] (Dub) (Sub Rus + Original Eng)

Ответить на тему
 

ziyod ®

Стаж: 7 лет 5 месяцев

Сообщений: 367

Симпатии: 60

Пришествие Дьявола / Devil's Due
Страна: США
Жанр: Ужасы
Год выпуска: 2013
Продолжительность: 01:29:01
Перевод: Профессиональный (дублированный)
Cубтитры: русские
Оригинальная аудиодорожка: английский
Режиссер: Мэттью Беттинелли / Matthew Bettinelli, Тайлер Джиллетт / Tyler Gillett
В ролях: Эллисон Миллер, Зак Гилфорд, Сэм Андерсон, Роджер Пейано, Ванесса Рэй, Билл Мартин Уильямс, Джеральдин Сингер, Джулия Дентон Френсис, Колин Уолкер, Мэдисон Вульф
Описание: После странной ночи во время их медового месяца молодожены сталкиваются с проблемой незапланированной беременности. Постепенно муж начинает замечать необычные изменения в поведении жены, поначалу они списывают это на нервы, но по прошествии нескольких месяцев становится очевидным, что перемены в ее теле и разуме имеют более зловещее происхождение.
Качество видео: BDRip-AVC
Формат видео: MKV
Видео: х.264, 1024x576 (16:9), 23,976 fps, 2788 Кbps, 0.197 bit/pixel
Аудио: 48 kHz, AC3 Dolby Digital, 3/2 (L,C,R,l,r) + LFE ch, 448.00 kbps | RUS
Аудио 2: 48 kHz, AC3 Dolby Digital, 3/2 (L,C,R,l,r) + LFE ch, 448.00 kbps | ENG
Формат субтитров: softsub (SRT)

MediaInfo

General
Unique ID : 244700095275588835634466323488817182823 (0xB817862AAB15CE739BF443D082E67867)
Complete name : Prishestviye.D'yavola.2014.DUAL.BDRip.x264.-HELLYWOOD.mkv
Format : Matroska
Format version : Version 4 / Version 2
File size : 2.18 GiB
Duration : 1h 29mn
Overall bit rate : 3 507 Kbps
Movie name : HELLYWOOD - rip by potroks
Encoded date : UTC 2014-04-20 02:58:04
Writing application : mkvmerge v5.9.0 ('On The Loose') built on Dec 15 2012 16:39:58
Writing library : libebml v1.3.0 + libmatroska v1.4.0
Video
ID : 1
Format : AVC
Format/Info : Advanced Video Codec
Format profile : [email protected]
Format settings, CABAC : Yes
Format settings, ReFrames : 12 frames
Codec ID : V_MPEG4/ISO/AVC
Duration : 1h 29mn
Bit rate : 2 609 Kbps
Width : 1 060 pixels
Height : 572 pixels
Display aspect ratio : 1.85:1
Frame rate mode : Constant
Frame rate : 23.976 fps
Color space : YUV
Chroma subsampling : 4:2:0
Bit depth : 8 bits
Scan type : Progressive
Bits/(Pixel*Frame) : 0.179
Stream size : 1.58 GiB (72%)
Title : Devil's Due
Writing library : x264 core 130 r2273 b3065e6
Encoding settings : cabac=1 / ref=12 / deblock=1:-2:-2 / analyse=0x3:0x133 / me=umh / subme=11 / psy=1 / psy_rd=1.02:0.00 / mixed_ref=1 / me_range=32 / chroma_me=1 / trellis=2 / 8x8dct=1 / cqm=0 / deadzone=21,11 / fast_pskip=0 / chroma_qp_offset=-2 / threads=9 / lookahead_threads=6 / sliced_threads=0 / nr=0 / decimate=0 / interlaced=0 / bluray_compat=0 / constrained_intra=0 / bframes=13 / b_pyramid=2 / b_adapt=2 / b_bias=0 / direct=3 / weightb=1 / open_gop=0 / weightp=2 / keyint=250 / keyint_min=23 / scenecut=40 / intra_refresh=0 / rc_lookahead=60 / rc=2pass / mbtree=0 / bitrate=2609 / ratetol=1.0 / qcomp=0.70 / qpmin=0 / qpmax=69 / qpstep=4 / cplxblur=20.0 / qblur=0.5 / vbv_maxrate=20000 / vbv_bufsize=25000 / nal_hrd=none / ip_ratio=1.35 / pb_ratio=1.25 / aq=1:0.70
Language : English
Default : Yes
Forced : No
Audio #1
ID : 2
Format : AC-3
Format/Info : Audio Coding 3
Mode extension : CM (complete main)
Format settings, Endianness : Big
Codec ID : A_AC3
Duration : 1h 29mn
Bit rate mode : Constant
Bit rate : 448 Kbps
Channel(s) : 6 channels
Channel positions : Front: L C R, Side: L R, LFE
Sampling rate : 48.0 KHz
Compression mode : Lossy
Stream size : 285 MiB (13%)
Title : Dub | DD 5.1 @ 448 kbps - BD CEE
Language : Russian
Default : Yes
Forced : Yes
Audio #2
ID : 3
Format : AC-3
Format/Info : Audio Coding 3
Mode extension : CM (complete main)
Format settings, Endianness : Big
Codec ID : A_AC3
Duration : 1h 29mn
Bit rate mode : Constant
Bit rate : 448 Kbps
Channel(s) : 6 channels
Channel positions : Front: L C R, Side: L R, LFE
Sampling rate : 48.0 KHz
Compression mode : Lossy
Stream size : 285 MiB (13%)
Title : Original | DD 5.1 @ 448 kbps - BD CEE
Language : English
Default : No
Forced : No
Text #1
ID : 4
Format : UTF-8
Codec ID : S_TEXT/UTF8
Codec ID/Info : UTF-8 Plain Text
Language : Russian
Default : No
Forced : No
Text #2
ID : 5
Format : UTF-8
Codec ID : S_TEXT/UTF8
Codec ID/Info : UTF-8 Plain Text
Title : комментарии
Language : Russian
Default : No
Forced : No
Text #3
ID : 6
Format : UTF-8
Codec ID : S_TEXT/UTF8
Codec ID/Info : UTF-8 Plain Text
Title : SDH1
Language : English
Default : No
Forced : No
Text #4
ID : 7
Format : UTF-8
Codec ID : S_TEXT/UTF8
Codec ID/Info : UTF-8 Plain Text
Title : SDH2
Language : English
Default : No
Forced : No
Text #5
ID : 8
Format : UTF-8
Codec ID : S_TEXT/UTF8
Codec ID/Info : UTF-8 Plain Text
Title : SDH-Colored
Language : English
Default : No
Forced : No
Menu
00:05:30.496 : en:(01)00:05:30:496
00:08:17.663 : en:(02)00:08:17:663
00:10:44.644 : en:(03)00:10:44:644
00:12:47.475 : en:(04)00:12:47:475
00:14:57.229 : en:(05)00:14:57:229
00:18:15.719 : en:(06)00:18:15:719
00:20:38.362 : en:(07)00:20:38:362
00:24:21.835 : en:(08)00:24:21:835
00:26:13.029 : en:(09)00:26:13:029
00:29:47.368 : en:(10)00:29:47:368
00:34:04.459 : en:(11)00:34:04:459
00:35:38.886 : en:(12)00:35:38:886
00:39:39.835 : en:(13)00:39:39:835
00:43:09.545 : en:(14)00:43:09:545
00:46:16.398 : en:(15)00:46:16:398
00:48:32.451 : en:(16)00:48:32:451
00:52:11.545 : en:(17)00:52:11:545
00:55:35.498 : en:(18)00:55:35:498
00:58:24.417 : en:(19)00:58:24:417
01:01:36.192 : en:(20)01:01:36:192
01:04:35.872 : en:(21)01:04:35:872
01:07:56.572 : en:(22)01:07:56:572
01:10:15.628 : en:(23)01:10:15:628
01:14:53.238 : en:(24)01:14:53:238
01:18:19.820 : en:(25)01:18:19:820
01:21:36.808 : en:(26)01:21:36:808
01:23:59.826 : en:(27)01:23:59:826
01:29:01.085 : en:(28)01:29:01:085

Скриншоты



Создавать темы 05-Дек-2015 09:54

[Профиль]  [ЛС] 
Показать сообщения:    
Ответить на тему

Текущее время: 23-Авг 05:44

Часовой пояс: UTC + 5



Вы не можете начинать темы
Вы не можете отвечать на сообщения
Вы не можете редактировать свои сообщения
Вы не можете удалять свои сообщения
Вы не можете голосовать в опросах
Вы не можете прикреплять файлы к сообщениям
Вы не можете скачивать файлы