Бабочка на плече / Un papillon sur l'épaule (Жак Дере) [1978, Франция, триллер, драма, BDRip] DVO + Sub (Rus)

Ответить на тему
 

lotto ®

Стаж: 7 лет 9 месяцев

Сообщений: 221

Симпатии: 409

Бабочка на плече / Un papillon sur l'épaule-- Страна: Франция
Жанр: триллер, драма
Год выпуска: 1978
Продолжительность: 01:37:57
Перевод: Профессиональный (двухголосый закадровый)
Cубтитры: русские (форсированные на 2х минутный кусок без голосового перевода)--Режиссер: Жак Дере
В ролях: Лино Вентура, Клодин Оже, Поль Кроше, Жан Буиз, Николь Гарсия, Ролан Бертен, Ксавье Депраз, Доминик Лаванан, Хосе Лифантэ, Жак Мори--Описание: Во время отдыха на море Ролан обнаружил в соседнем номере труп. Неожиданно его самого обвиняют в убийстве, помещают в загадочную клинику, где постоянно допрашивают. Ему предъявляют маленький чемодан, который он раньше никогда не видел, в качестве улики, а он безуспешно пытается понять, где находится и почему в убийстве обвиняют именно его…-- --Качество видео: BDRip
Формат видео: AVI
Видео: XviD, 720x432, 24 fps, 1918 kbps
Аудио: AC3, 48 kHz, 2 ch, 192.00 kbps (русский, двухголосый)
Формат субтитров: softsub (SRT)

MediaInfo

General
Complete name : \Babochka.na.pleche.1978.RUS.BDRip.XviD.AC3.-HQCLUB\Babochka.na.pleche.1978.RUS.BDRip.XviD.AC3.-HQCLUB.avi
Format : AVI
Format/Info : Audio Video Interleave
File size : 1.45 GiB
Duration : 1h 37mn
Overall bit rate : 2 119 Kbps
Movie name : Бабочка на плече / Un papillon sur l'epaule (1978) BDRip
Director : sociolog_melvas
Genre : триллер, драма
Writing application : VirtualDubMod 1.5.10.2 (build 2540/release)
Copyright : http://hqclub.net/
Comment : 04.07.2012
Video
ID : 0
Format : MPEG-4 Visual
Format profile : Advanced [email protected]
Format settings, BVOP : 1
Format settings, QPel : No
Format settings, GMC : No warppoints
Format settings, Matrix : Custom
Codec ID : XVID
Codec ID/Hint : XviD
Duration : 1h 37mn
Bit rate : 1 918 Kbps
Width : 720 pixels
Height : 432 pixels
Display aspect ratio : 5:3
Frame rate : 24.000 fps
Color space : YUV
Chroma subsampling : 4:2:0
Bit depth : 8 bits
Scan type : Progressive
Compression mode : Lossy
Bits/(Pixel*Frame) : 0.257
Stream size : 1.31 GiB (90%)
Writing library : XviD 72
Audio
ID : 1
Format : AC-3
Format/Info : Audio Coding 3
Format profile : Dolby Digital
Mode extension : CM (complete main)
Format settings, Endianness : Big
Codec ID : 2000
Duration : 1h 37mn
Bit rate mode : Constant
Bit rate : 192 Kbps
Channel(s) : 2 channels
Channel positions : Front: L R
Sampling rate : 48.0 KHz
Compression mode : Lossy
Stream size : 135 MiB (9%)
Alignment : Split accross interleaves
Interleave, duration : 42 ms (1.00 video frame)
Interleave, preload duratio : 500 ms

Скриншот c названием фильма

Скриншоты





Создавать темы 05-Дек-2015 13:26

[Профиль]  [ЛС] 
Показать сообщения:    
Ответить на тему

Текущее время: 24-Окт 07:28

Часовой пояс: UTC + 5



Вы не можете начинать темы
Вы не можете отвечать на сообщения
Вы не можете редактировать свои сообщения
Вы не можете удалять свои сообщения
Вы не можете голосовать в опросах
Вы не можете прикреплять файлы к сообщениям
Вы не можете скачивать файлы