Мой маленький пони: Девочки из Эквестрии - Игры Дружбы / My Little Pony: Equestria Girls - Friendship Games (Джэйсон Тиссен / Jayson Thiessen, Иши Руделл / Ishi Rudell) [2015, США, Приключения, семейный, фэнтези, HDTVRip] (DVO : Трина Дубовицкая и AL

Ответить на тему
 

Ravilya ®

Стаж: 2 года 6 месяцев

Сообщений: 22

Симпатии: 33

Мой маленький пони: Девочки из Эквестрии - Игры Дружбы / My Little Pony: Equestria Girls - Friendship Games
Страна: США
Жанр: Приключения, семейный, фэнтези
Год выпуска: 2015
Продолжительность: 01:12:02
Перевод 1: Любительский (двухголосый закадровый) (Трина Дубовицкая и ALEKS KV)
Перевод 2: Одноголосый закадровый (ALEKS KV)
Перевод 3: Одноголосый закадровый (Sweetie Bot)
Перевод 4: Одноголосый закадровый (Soviet Voice)
Cубтитры: русские
Режиссер: Джэйсон Тиссен / Jayson Thiessen, Иши Руделл / Ishi Rudell
Роли озвучивали: Тара Стронг, Ребекка Шойкет, Эшли Болл, Андреа Либман, Табита Сен-Жермен, Кэти Уэслак и другие
Описание: Студенты Кантерлота готовятся к Играм Дружбы — спортивному мероприятию, проводимому между командами Вондерколт и Шедоуболт раз в четыре года. Игры предназначены для того, чтобы гармонизировать две школы, но студенты из школы Кантерлота возмущаются на учеников Кристальной Академии за их неспортивное поведения и жажду победы. Селестия и Луна предупредили Сансет Шиммер и ее друзей, что магия в играх запрещена.
Качество: HDTVRip 1080p
Формат: MKV
Видео: AVC, 1920x1080 (16:9), 23.976 fps, 5000 kbps
Аудио 1 Rus: AC3, 48 kHz, 2 ch, 192 kbps (Трина Дубовицкая и ALEKS KV)
Аудио 2 Rus: AC3, 48 kHz, 2 ch, 192 kbps (ALEKS KV)
Аудио 3 Rus: AC3, 48 kHz, 2 ch, 192 kbps (Sweetie Bot)
Аудио 4 Rus: AC3, 48 kHz, 2 ch, 192 kbps (Soviet Voice) (песни не озвучены)
Аудио 5 Eng: AC3, 48 kHz, 2 ch, 192 kbps (Original)
Субтитры 1 Rus: (Anon2Anon)
Субтитры 2 Rus: (TheDoctor Team)
Субтитры 3 Eng: (Anon2Anon)
 

MediaInfo

Общее
Уникальный идентификатор : 203990018449927201346882421846651585618 (0x99770C69C4723309A4C6454BF77E4452)
Полное имя : D:\Mults\mlp.eg.friendship.games.2015.hdtvrip.1080p.mkv
Формат : Matroska
Версия формата : Version 4 / Version 2
Размер файла : 2,96 Гбайт
Продолжительность : 1 ч. 12 м.
Общий поток : 5874 Кбит/сек
Дата кодирования : UTC 2015-10-08 14:01:22
Программа кодирования : mkvmerge v8.4.0 ('A better way to fly') 32bit
Библиотека кодирования : libebml v1.3.1 + libmatroska v1.4.2
DURATION : 01:12:02.496000000
NUMBER_OF_FRAMES : 135078
NUMBER_OF_BYTES : 103739904
_STATISTICS_WRITING_APP : mkvmerge v8.4.0 ('A better way to fly') 32bit
_STATISTICS_WRITING_DATE_UTC : 2015-10-08 14:01:22
_STATISTICS_TAGS : BPS DURATION NUMBER_OF_FRAMES NUMBER_OF_BYTES
Видео
Идентификатор : 1
Формат : AVC
Формат/Информация : Advanced Video Codec
Профиль формата : [email protected]
Параметр CABAC формата : Да
Параметр ReFrames формата : 4 кадра
Идентификатор кодека : V_MPEG4/ISO/AVC
Продолжительность : 1 ч. 12 м.
Битрейт : 5000 Кбит/сек
Ширина : 1920 пикселей
Высота : 1080 пикселей
Соотношение сторон : 16:9
Режим частоты кадров : Постоянный
Частота кадров : 23,976 кадра/сек
Цветовое пространство : YUV
Субдискретизация насыщенности : 4:2:0
Битовая глубина : 8 бит
Тип развёртки : Прогрессивная
Бит/(Пиксели*Кадры) : 0.101
Размер потока : 2,41 Гбайт (82%)
Библиотека кодирования : x264 core 142
Настройки программы : cabac=1 / ref=3 / deblock=1:0:0 / analyse=0x3:0x113 / me=hex / subme=7 / psy=1 / psy_rd=1.00:0.00 / mixed_ref=1 / me_range=16 / chroma_me=1 / trellis=1 / 8x8dct=1 / cqm=0 / deadzone=21,11 / fast_pskip=1 / chroma_qp_offset=-2 / threads=12 / lookahead_threads=2 / sliced_threads=0 / nr=0 / decimate=1 / interlaced=0 / bluray_compat=0 / constrained_intra=0 / bframes=3 / b_pyramid=2 / b_adapt=1 / b_bias=0 / direct=1 / weightb=1 / open_gop=0 / weightp=2 / keyint=250 / keyint_min=23 / scenecut=40 / intra_refresh=0 / rc_lookahead=40 / rc=abr / mbtree=1 / bitrate=5000 / ratetol=1.0 / qcomp=0.60 / qpmin=0 / qpmax=69 / qpstep=4 / ip_ratio=1.40 / aq=1:1.00
Язык : English
Default : Да
Forced : Нет
DURATION : 01:12:02.569000000
NUMBER_OF_FRAMES : 103638
NUMBER_OF_BYTES : 2653343683
_STATISTICS_WRITING_APP : mkvmerge v8.4.0 ('A better way to fly') 32bit
_STATISTICS_WRITING_DATE_UTC : 2015-10-08 14:01:22
_STATISTICS_TAGS : BPS DURATION NUMBER_OF_FRAMES NUMBER_OF_BYTES
Аудио #1
Идентификатор : 2
Формат : AC-3
Формат/Информация : Audio Coding 3
Расширение режима : CM (complete main)
Параметр Endianness формата : Big
Идентификатор кодека : A_AC3
Продолжительность : 1 ч. 12 м.
Вид битрейта : Постоянный
Битрейт : 192 Кбит/сек
Каналы : 2 канала
Расположение каналов : Front: L R
Частота : 48,0 КГц
Битовая глубина : 16 бит
Метод сжатия : С потерями
Задержка видео : -83 мс.
Размер потока : 98,9 Мбайт (3%)
Заголовок : Трина Дубовицкая и ALEKS KV
Язык : Russian
Default : Да
Forced : Нет
Аудио #2
Идентификатор : 3
Формат : AC-3
Формат/Информация : Audio Coding 3
Расширение режима : CM (complete main)
Параметр Endianness формата : Big
Идентификатор кодека : A_AC3
Продолжительность : 1 ч. 12 м.
Вид битрейта : Постоянный
Битрейт : 192 Кбит/сек
Каналы : 2 канала
Расположение каналов : Front: L R
Частота : 48,0 КГц
Битовая глубина : 16 бит
Метод сжатия : С потерями
Задержка видео : -83 мс.
Размер потока : 98,9 Мбайт (3%)
Заголовок : ALEKS KV
Язык : Russian
Default : Нет
Forced : Нет
Аудио #3
Идентификатор : 4
Формат : AC-3
Формат/Информация : Audio Coding 3
Расширение режима : CM (complete main)
Параметр Endianness формата : Big
Идентификатор кодека : A_AC3
Продолжительность : 1 ч. 12 м.
Вид битрейта : Постоянный
Битрейт : 192 Кбит/сек
Каналы : 2 канала
Расположение каналов : Front: L R
Частота : 48,0 КГц
Битовая глубина : 16 бит
Метод сжатия : С потерями
Задержка видео : -83 мс.
Размер потока : 98,9 Мбайт (3%)
Заголовок : Sweetie Bot
Язык : Russian
Default : Нет
Forced : Нет
Аудио #4
Идентификатор : 5
Формат : AC-3
Формат/Информация : Audio Coding 3
Расширение режима : CM (complete main)
Параметр Endianness формата : Big
Идентификатор кодека : A_AC3
Продолжительность : 1 ч. 12 м.
Вид битрейта : Постоянный
Битрейт : 192 Кбит/сек
Каналы : 2 канала
Расположение каналов : Front: L R
Частота : 48,0 КГц
Битовая глубина : 16 бит
Метод сжатия : С потерями
Задержка видео : -83 мс.
Размер потока : 98,9 Мбайт (3%)
Заголовок : Soviet Voice
Язык : Russian
Default : Нет
Forced : Нет
Аудио #5
Идентификатор : 6
Формат : AC-3
Формат/Информация : Audio Coding 3
Расширение режима : CM (complete main)
Параметр Endianness формата : Big
Идентификатор кодека : A_AC3
Продолжительность : 1 ч. 12 м.
Вид битрейта : Постоянный
Битрейт : 192 Кбит/сек
Каналы : 2 канала
Расположение каналов : Front: L R
Частота : 48,0 КГц
Битовая глубина : 16 бит
Метод сжатия : С потерями
Задержка видео : -83 мс.
Размер потока : 98,9 Мбайт (3%)
Заголовок : Original
Язык : English
Default : Нет
Forced : Нет
Текст #1
Идентификатор : 7
Формат : ASS
Идентификатор кодека : S_TEXT/ASS
Идентификатор кодека/Информация : Advanced Sub Station Alpha
Метод сжатия : Без потерь
Заголовок : Anon2Anon
Язык : Russian
Default : Нет
Forced : Нет
Текст #2
Идентификатор : 8
Формат : ASS
Идентификатор кодека : S_TEXT/ASS
Идентификатор кодека/Информация : Advanced Sub Station Alpha
Метод сжатия : Без потерь
Заголовок : TheDoctor Team
Язык : Russian
Default : Нет
Forced : Нет
Текст #3
Идентификатор : 9
Формат : ASS
Идентификатор кодека : S_TEXT/ASS
Идентификатор кодека/Информация : Advanced Sub Station Alpha
Метод сжатия : Без потерь
Заголовок : Anon2Anon
Язык : English
Default : Нет
Forced : Нет

Скриншоты



Создавать темы 05-Дек-2015 16:09

[Профиль]  [ЛС] 

yarik

Стаж: 4 года 9 месяцев

Сообщений: 225

Симпатии: 123

Помогу с раздачей :)

Создавать темы 06-Дек-2015 15:47

[Профиль]  [ЛС] 

Ravilya ®

Стаж: 2 года 6 месяцев

Сообщений: 22

Симпатии: 33

961207Помогу с раздачей :)
Вам большое спасибо)))

Создавать темы 06-Дек-2015 16:15

[Профиль]  [ЛС] 

Tango4

Стаж: 5 лет 10 месяцев

Сообщений: 80

Симпатии: 9

есс!

Создавать темы 09-Дек-2015 20:19

[Профиль]  [ЛС] 

Ravilya ®

Стаж: 2 года 6 месяцев

Сообщений: 22

Симпатии: 33

Мой маленький пони. Дружба - это чудо 5 СЕЗОН/ My Little Pony: Friendship Is Magic

Создавать темы 09-Дек-2015 22:56

[Профиль]  [ЛС] 

Tango4

Стаж: 5 лет 10 месяцев

Сообщений: 80

Симпатии: 9

Cтолько звуковых дорожек...
Вот бы Гоблин озвучил.

Создавать темы 15-Дек-2015 14:38

[Профиль]  [ЛС] 
Показать сообщения:    
Ответить на тему

Текущее время: 20-Ноя 05:29

Часовой пояс: UTC + 5



Вы не можете начинать темы
Вы не можете отвечать на сообщения
Вы не можете редактировать свои сообщения
Вы не можете удалять свои сообщения
Вы не можете голосовать в опросах
Вы не можете прикреплять файлы к сообщениям
Вы не можете скачивать файлы