Мёртвые листья: Звёздная тюряга / Dead Leaves ( Имайси Хироюки) [RUS(int), JАP][2004 г., приключения, комедия DVDRip]

Ответить на тему
 

Choris ®

Стаж: 2 года 3 месяца

Сообщений: 61

Симпатии: 54

Год выпуска: 2004
Страна: Япония
Жанр: фантастика, комедия
Премьера: 17.01.2004
Продолжительность: 53 мин
Перевод: (многоголосый, закадровый)
Русские субтитры: нет
Хардсаб: нет-Режиссер: Имайси Хироюки
Автор оригинала: Имай Тунз
Студия: -Описание: Славная парочка отморозков — длинноногая секс-бомба Панди с красным пятном вокруг правого глаза, с которым она смахивает на панду, и её дружок Ретро со старинным телевизором вместо головы - просыпаются в открытом поле в чём мать родила и без малейшего понятия, как туда попали. Не долго думая, они отправляются в ближайший город в поисках еды и одежды, где устраивают разнузданный кутёж в стиле Бонни и Клайда, убивая и грабя испуганных горожан. После головокружительной погони их ловит полиция, и парочку отправляют на Луну в зловещую тюрьму «Мёртвые листья», управляемую жестокой троицей — грозной начальницей Галактикой и её подчинёнными братьями-мутантами 666 и 777, с садистским удовольствием убивающими заключённых. В «Мёртвых листьях» Панди и Ретро узнают, что тюрьма фактически является сверхсекретной фабрикой клонов, а её узники - результаты генетических опытов. Мятежная сущность героев не даёт им долго пребывать взаперти, и с помощью товарищей по неволе парочка решает устроить побег. Дела окончательно запутываются, когда выясняется, что внезапно забеременевшая Панди — на самом деле сестра демонической Галактики, разыскивающей генетический материал для возрождения их отца... Психоделическая феерия красок и лунатический сюрреализм образов в совершенно безбашенной чёрной комедии «Мёртвые листья».- 
-Качество: DVDRip
Формат: AVI
Видео кодек
: XviD
Аудио кодек: AC3
Видео: 720x400, 23.976 fps, ~1800Kbps
Аудио 1: 48000Hz, 6ch, 384Kbps, (Rus) МС Еntertainment
Аудио 2: 48000Hz, 6ch, 384Kbps, (Jap)-

Media Info

General
Complete name               : D:\Root\anime\Dead Leaves.avi
Format                      : AVI
Format/Info                 : Audio Video Interleave
File size                   : 1 001 MiB
Duration                    : 52mn 27s
Overall bit rate            : 2 669 Kbps
Writing application         : VirtualDubMod 1.5.4.1 (build 2178/release)
Writing library             : VirtualDubMod build 2178/release
Video
ID                          : 0
Format                      : MPEG-4 Visual
Format profile              : Advanced [email protected]
Format settings, BVOP       : 1
Format settings, QPel       : No
Format settings, GMC        : No warppoints
Format settings, Matrix     : Custom
Codec ID                    : XVID
Codec ID/Hint               : XviD
Duration                    : 52mn 27s
Bit rate                    : 1 893 Kbps
Width                       : 720 pixels
Height                      : 400 pixels
Display aspect ratio        : 16:9
Frame rate                  : 23.976 fps
Color space                 : YUV
Chroma subsampling          : 4:2:0
Bit depth                   : 8 bits
Scan type                   : Progressive
Compression mode            : Lossy
Bits/(Pixel*Frame)          : 0.274
Stream size                 : 710 MiB (71%)
Writing library             : XviD 1.2.0.dev47 (UTC 2006-11-01)
Audio #1
ID                          : 1
Format                      : AC-3
Format/Info                 : Audio Coding 3
Mode extension              : CM (complete main)
Format settings, Endianness : Big
Codec ID                    : 2000
Duration                    : 52mn 27s
Bit rate mode               : Constant
Bit rate                    : 384 Kbps
Channel(s)                  : 6 channels
Channel positions           : Front: L C R, Side: L R, LFE
Sampling rate               : 48.0 KHz
Compression mode            : Lossy
Stream size                 : 144 MiB (14%)
Alignment                   : Split accross interleaves
Interleave, duration        : 96 ms (2.30 video frames)
Interleave, preload duratio : 96 ms
Audio #2
ID                          : 2
Format                      : AC-3
Format/Info                 : Audio Coding 3
Mode extension              : CM (complete main)
Format settings, Endianness : Big
Codec ID                    : 2000
Duration                    : 52mn 27s
Bit rate mode               : Constant
Bit rate                    : 384 Kbps
Channel(s)                  : 6 channels
Channel positions           : Front: L C R, Side: L R, LFE
Sampling rate               : 48.0 KHz
Compression mode            : Lossy
Stream size                 : 144 MiB (14%)
Alignment                   : Split accross interleaves
Interleave, duration        : 96 ms (2.30 video frames)
Interleave, preload duratio : 96 ms
-

Скриншоты




Создавать темы 05-Дек-2015 19:02

[Профиль]  [ЛС] 
Показать сообщения:    
Ответить на тему

Текущее время: 18-Авг 14:00

Часовой пояс: UTC + 5



Вы не можете начинать темы
Вы не можете отвечать на сообщения
Вы не можете редактировать свои сообщения
Вы не можете удалять свои сообщения
Вы не можете голосовать в опросах
Вы не можете прикреплять файлы к сообщениям
Вы не можете скачивать файлы