(Classic) Lyudovico Einauldi - Elements [DELUXE] - 2015, FLAC, Lossless

Ответить на тему
 

Ministr22 ®

Стаж: 1 год 11 месяцев

Сообщений: 2

Симпатии: 3

Ludovico Einaudi - Elements [Deluxe]
Жанр: Classic
Год издания: 2015
Аудиокодек: FLAC
Битрейт аудио: lossless
Продолжительность: 02:31:28
Треклист:
01 - Ludovico Einaudi & Daniel Hope - Petricor
02 - Ludovico Einaudi & Amsterdam Sinfonietta - Night
03 - Ludovico Einaudi - Drop
04 - Ludovico Einaudi & Amsterdam Sinfonietta - Four Dimensions
05 - Ludovico Einaudi & Amsterdam Sinfonietta - Elements
06 - Ludovico Einaudi & Amsterdam Sinfonietta - Whirling Winds
07 - Ludovico Einaudi - Twice
08 - Ludovico Einaudi - ABC
09 - Ludovico Einaudi - Numbers
10 - Ludovico Einaudi - Mountain
11 - Ludovico Einaudi & Amsterdam Sinfonietta - Logos
12 - Ludovico Einaudi - Song For Gavin
13 - Ludovico Einaudi - Drop Variation
14 - Ludovico Einaudi - Elements Variation
15 - Ludovico Einaudi - Twice Variation


Последний раз редактировалось: Ministr22 (2015-12-06 20:23), всего редактировалось 11 раз(а)

Создавать темы 05-Дек-2015 22:19

[Профиль]  [ЛС] 

yarik

Стаж: 4 года 9 месяцев

Сообщений: 225

Симпатии: 123

01. Встаньте на раздачу.
02. Выделил красным ошибки:
Жанр: Classic
Год издания: 2015
Аудиокодек: OGG FLAC
Тип рипа: image+.cue
Битрейт аудио: 320 kbps Lossless
Продолжительность: 02:31:28
Треклист: исправить
DR10 -0.20 dB -14.09 dB 5:31 02-Night
DR11 -1.64 dB -18.27 dB 4:42 04-Four Dimensions
DR11 -0.20 dB -14.38 dB 6:06 05-Elements
DR12 -4.05 dB -21.11 dB 5:59 06-Whirling Winds
DR11 -0.20 dB -15.92 dB 6:23 11-Logos
DR9 -0.20 dB -12.49 dB 6:35 01-Petricor
DR10 -3.38 dB -18.18 dB 5:00 03-Drop
DR10 -0.20 dB -13.82 dB 5:21 07-Twice
DR11 -2.50 dB -19.18 dB 3:06 08-ABC
DR9 -0.20 dB -15.28 dB 4:35 09-Numbers
DR13 -4.00 dB -22.27 dB 6:13 10-Mountain
DR10 -5.60 dB -21.67 dB 3:19 12-Song For Gavin
DR10 -3.72 dB -17.92 dB 3:49 13-Drop Variation
DR12 -4.54 dB -23.16 dB 3:39 14-Elements Variation
DR11 -4.61 dB -20.47 dB 5:26 15-Twice Variation

Номер. Исполнитель - Название
01. Ludovico Einaudi & Daniel Hope - Petricor
02. Ludovico Einaudi & Amsterdam Sinfonietta - Night
03...

Создавать темы 06-Дек-2015 02:32

[Профиль]  [ЛС] 

Ministr22 ®

Стаж: 1 год 11 месяцев

Сообщений: 2

Симпатии: 3

со вчерашнего дня выбираю: редактировать, а в ответ: тишина...

Создавать темы 06-Дек-2015 13:16

[Профиль]  [ЛС] 
Показать сообщения:    
Ответить на тему

Текущее время: 22-Ноя 00:35

Часовой пояс: UTC + 5



Вы не можете начинать темы
Вы не можете отвечать на сообщения
Вы не можете редактировать свои сообщения
Вы не можете удалять свои сообщения
Вы не можете голосовать в опросах
Вы не можете прикреплять файлы к сообщениям
Вы не можете скачивать файлы