Ловушка для привидения / Gespensterjager (Тоби Бауманн) [2015, Германия, Австрия, Ирландия, фэнтези, комедия, семейный, HDRip]

Ответить на тему
 

lucky999 ®

Стаж: 1 год 11 месяцев

Сообщений: 32

Симпатии: 43

Ловушка для привидения / Gespensterjager
Страна: Германия, Австрия, Ирландия
Жанр: фэнтези, комедия, семейный
Год выпуска: 2015
Продолжительность: 01:38:49
Перевод: Любительский (двухголосый закадровый)
Cубтитры: нет
Режиссер: Тоби Бауманн
В ролях: Анке Энгельке, Майло Паркер, Бастиан Пастевка, Каролина Херфурт, Кристиан Трамиц, Кристиан Ульмен, Юлия Кошиц, Руби О. Фи, Эми Хубермэн, Бибиан Целлер
Описание: История 11-летнего одинокого Тома. После встречи с очаровательным упитанным привидением Хьюго в подвале своего дома жизнь мальчика изменится самым удивительным образом. Ему придется проявить истинную храбрость и на пару с охотницей за привидениями Хэтти помочь Хьюго вернуться к себе домой. Для этого героям нужно пройти через массу препятствий, чтобы уничтожить Древний Дух Льда, который живет в доме Хьюго, и грозит повергнуть весь город в вечную мерзлоту. Но для того, чтобы совершить подвиги, Тому и Хэтти нужно будет заглянуть к себе в сердце...
Доп. информация: сценарий Тоби Бауманн, Мурмель Клаузен, Майк О’Лири, ...
продюсер Борис Оссере, Оливер Шюндлер, Генрих Амброш, ...
оператор Томас В. Киенаст
композитор Ральф Венгенмайр
художник Кристоф Кантер, Карин Бирбаум, Кристина Каспари, ...
монтаж Александр Диттнер
Качество видео: HDRip
Формат видео: AVI
Видео: Xvid, 720x304, 23.976fps, 1906 kbps
Аудио: Dolby AC3, 48000Hz, stereo, 192 kbps

MediaInfo

General
Complete name : D:\torrent\L0vu6ka.2lya.5RiV1deN1ya.2015.L2.HDRip.avi
Format : AVI
Format/Info : Audio Video Interleave
File size : 1.46 GiB
Duration : 1h 38mn
Overall bit rate : 2 108 Kbps
Movie name : L0vu6ka.2lya.5RiV1deN1ya.2015.L2.HDRip.ELEKTRI4KA.uniongang.tv
Writing application : VirtualDubMod 1.5.10.3 | www.virtualdub-fr.org || (build 2550/release)
Copyright : UNIONGANG&RUSTORRENTS
Video
ID : 0
Format : MPEG-4 Visual
Format profile : Advanced [email protected]
Format settings, BVOP : 2
Format settings, QPel : No
Format settings, GMC : No warppoints
Format settings, Matrix : Default (MPEG)
Codec ID : XVID
Codec ID/Hint : XviD
Duration : 1h 38mn
Bit rate : 1 907 Kbps
Width : 720 pixels
Height : 304 pixels
Display aspect ratio : 2.35:1
Frame rate : 23.976 fps
Color space : YUV
Chroma subsampling : 4:2:0
Bit depth : 8 bits
Scan type : Progressive
Compression mode : Lossy
Bits/(Pixel*Frame) : 0.363
Stream size : 1.32 GiB (90%)
Writing library : XviD 1.2.1 (UTC 2008-12-04)
Audio
ID : 1
Format : AC-3
Format/Info : Audio Coding 3
Mode extension : CM (complete main)
Format settings, Endianness : Big
Codec ID : 2000
Duration : 1h 38mn
Bit rate mode : Constant
Bit rate : 192 Kbps
Channel(s) : 2 channels
Channel positions : Front: L R
Sampling rate : 48.0 KHz
Compression mode : Lossy
Stream size : 136 MiB (9%)
Alignment : Split accross interleaves
Interleave, duration : 42 ms (1.00 video frame)
Interleave, preload duration : 500 ms

Скриншоты





Последний раз редактировалось: lucky999 (2015-12-10 18:52), всего редактировалось 1 раз

Создавать темы 06-Дек-2015 02:42

[Профиль]  [ЛС] 

Mixer City

Стаж: 6 лет 7 месяцев

Сообщений: 754

Симпатии: 63

Скрины где?

Создавать темы 06-Дек-2015 21:03

[Профиль]  [ЛС] 

hacker

Стаж: 4 года 11 месяцев

Сообщений: 104

Симпатии: 68

офф звука когда будет

Создавать темы 06-Дек-2015 21:29

[Профиль]  [ЛС] 

ruhal

Стаж: 2 года 4 месяца

Сообщений: 1182

Симпатии: 1836

Mixer City, где то глубоко под спойлерами

Создавать темы 07-Дек-2015 09:33

[Профиль]  [ЛС] 
Показать сообщения:    
Ответить на тему

Текущее время: 20-Авг 01:43

Часовой пояс: UTC + 5



Вы не можете начинать темы
Вы не можете отвечать на сообщения
Вы не можете редактировать свои сообщения
Вы не можете удалять свои сообщения
Вы не можете голосовать в опросах
Вы не можете прикреплять файлы к сообщениям
Вы не можете скачивать файлы