Пальцы / Fingers (Джеймс Тобэк) [1978, США, драма, криминал, DVDRip] (DVO)

Ответить на тему
 

lotto ®

Стаж: 7 лет 9 месяцев

Сообщений: 221

Симпатии: 409

Пальцы / Fingers-- Страна: США
Жанр: драма, криминал
Год выпуска: 1978
Продолжительность: 01:29:59
Перевод: Профессиональный (двухголосый закадровый)
Cубтитры: нет--Режиссер: Джеймс Тобэк
В ролях: Харви Кайтел, Тиза Фэрроу, Джим Браун, Майкл Гаццо, Мэриэн Селдес, Дэнни Айелло, Эд Маринаро, Таня Робертс--Описание: Джимми-Фингерс (или Джимми-Пальцы) живет одновременно в двух реальностях родного Нью-Йорка - артистической и криминальной. В одной, он - необыкновенно талантливый пианист, участвующий во всевозможных конкурсах. В другой - он грубый и жестокий громила, который выбивает деньги из бедолаг, задолжавших его мафиозному папаше. Мучительное существование в двух ипостасях приводят Джимми к саморазрушительному неврозу, и со временем может обернуться роковыми последствиями...-- --Качество видео: DVDRip
Формат видео: AVI
Видео: XviD, 720x400, 23.976 fps, 2100 kbps
Аудио: AC3, 48 kHz, 1 ch, 192 kbps (русский, двухголосый)

MediaInfo

General
Complete name : Fingers.1978.DVDRip.avi
Format : AVI
Format/Info : Audio Video Interleave
File size : 1.45 GiB
Duration : 1h 29mn
Overall bit rate : 2 301 Kbps
Movie name : Пальцы - Fingers
Director : Rip by Edich2
Writing application : VirtualDubMod 1.5.10.2 (build 2540/release)
Video
ID : 0
Format : MPEG-4 Visual
Format profile : Advanced [email protected]
Format settings, BVOP : 1
Format settings, QPel : No
Format settings, GMC : No warppoints
Format settings, Matrix : Custom
Codec ID : XVID
Codec ID/Hint : XviD
Duration : 1h 29mn
Bit rate : 2 100 Kbps
Width : 720 pixels
Height : 400 pixels
Display aspect ratio : 16:9
Frame rate : 23.976 fps
Color space : YUV
Chroma subsampling : 4:2:0
Bit depth : 8 bits
Scan type : Progressive
Compression mode : Lossy
Bits/(Pixel*Frame) : 0.304
Stream size : 1.32 GiB (91%)
Writing library : XviD 1.2.1 (UTC 2008-12-04)
Audio
ID : 1
Format : AC-3
Format/Info : Audio Coding 3
Mode extension : CM (complete main)
Format settings, Endianness : Big
Codec ID : 2000
Duration : 1h 29mn
Bit rate mode : Constant
Bit rate : 192 Kbps
Channel(s) : 1 channel
Channel positions : Front: C
Sampling rate : 48.0 KHz
Compression mode : Lossy
Stream size : 124 MiB (8%)
Alignment : Split accross interleaves
Interleave, duration : 42 ms (1.00 video frame)
Interleave, preload duratio : 500 ms

Скриншот c названием фильма

Скриншоты





Создавать темы 07-Дек-2015 16:50

[Профиль]  [ЛС] 
Показать сообщения:    
Ответить на тему

Текущее время: 18-Окт 12:30

Часовой пояс: UTC + 5



Вы не можете начинать темы
Вы не можете отвечать на сообщения
Вы не можете редактировать свои сообщения
Вы не можете удалять свои сообщения
Вы не можете голосовать в опросах
Вы не можете прикреплять файлы к сообщениям
Вы не можете скачивать файлы