Всё могу / Absolutely Anything (Терри Джонс) [2015, США, фантастика, комедия, HDRip] (Dub)

Ответить на тему
 

Azamchikbest ®

Стаж: 2 года 6 месяцев

Сообщений: 19

Симпатии: 34

Всё могу / Absolutely Anything-«Суперсила и никакой ответственности!»- Страна: США
Жанр: фантастика, комедия
Год выпуска: 2015
Продолжительность: 01:21:47-Перевод: Дублированный (Чистый звук)
Cубтитры: нет
Режиссер: Терри Джонс-В ролях: Кейт Бекинсейл, Робин Уильямс, Саймон Пегг, Терри Гиллиам, Джоанна Ламли, Джон Клиз, Роб Риггл, Эдди Иззард, Эмма Пирсон, Эрик Айдл-Описание: Злобные инопланетяне, собираясь уничтожить Землю, дают ей последний шанс — наделяют учителя-неудачника Ника Кларка способностью исполнять любые желания. Он бы мог положить конец войнам или воскресить величайшие умы всех времен. Вот только как заманчиво: стать президентом США, соблазнить неприступную красотку или заставить заговорить собственного пса. Спасет ли Ник Кларк землю или устроит полный беспредел?-Качество видео: HDRip
Формат видео: AVI-Видео: XviD, 1955 kb/s, 720x304
Аудио: AC3, 192 kb/s (2 ch)-

MediaInfo

General
Complete name : D:\KINO\Fse0.MaGu.2015.D.HDRip.1400MB.Ooops.avi
Format : AVI
Format/Info : Audio Video Interleave
File size : 1.37 GiB
Duration : 1h 25mn
Overall bit rate : 2 280 Kbps
Movie name : Fse0.MaGu.2015.D.HDRip.1400MB.ELEKTRI4KA.uniongang.tv
Writing application : VirtualDubMod 1.5.10.3 | www.virtualdub-fr.org || (build 2550/release)
Copyright : UNIONGANG&RUSTORRENTS
Video
ID : 0
Format : MPEG-4 Visual
Format profile : Advanced [email protected]
Format settings, BVOP : 2
Format settings, QPel : No
Format settings, GMC : No warppoints
Format settings, Matrix : Default (MPEG)
Codec ID : XVID
Codec ID/Hint : XviD
Duration : 1h 25mn
Bit rate : 1 887 Kbps
Width : 720 pixels
Height : 304 pixels
Display aspect ratio : 2.35:1
Frame rate : 23.976 fps
Color space : YUV
Chroma subsampling : 4:2:0
Bit depth : 8 bits
Scan type : Progressive
Compression mode : Lossy
Bits/(Pixel*Frame) : 0.360
Stream size : 1.13 GiB (83%)
Writing library : XviD 1.2.1 (UTC 2008-12-04)
Audio
ID : 1
Format : AC-3
Format/Info : Audio Coding 3
Mode extension : CM (complete main)
Format settings, Endianness : Big
Codec ID : 2000
Duration : 1h 25mn
Bit rate mode : Constant
Bit rate : 384 Kbps
Channel(s) : 2 channels
Channel positions : Front: L R
Sampling rate : 48.0 KHz
Bit depth : 16 bits
Compression mode : Lossy
Stream size : 236 MiB (17%)
Alignment : Split accross interleaves
Interleave, duration : 42 ms (1.00 video frame)
Interleave, preload duration : 500 ms

Скриншоты





Последний раз редактировалось: Azamchikbest (2015-12-07 23:23), всего редактировалось 1 раз

Создавать темы 07-Дек-2015 17:15

[Профиль]  [ЛС] 

Страх

Стаж: 4 года 2 месяца

Сообщений: 1131

Симпатии: 448

уточните какое качество звука (чистый звук, либо camrip или же itunes )
спасибо

Создавать темы 07-Дек-2015 23:23

[Профиль]  [ЛС] 
Показать сообщения:    
Ответить на тему

Текущее время: 15-Дек 15:24

Часовой пояс: UTC + 5



Вы не можете начинать темы
Вы не можете отвечать на сообщения
Вы не можете редактировать свои сообщения
Вы не можете удалять свои сообщения
Вы не можете голосовать в опросах
Вы не можете прикреплять файлы к сообщениям
Вы не можете скачивать файлы