Тюремный эксперимент в Стэнфорде / The Stanford Prison Experiment [2015, США, Триллер, драма, HDRip]

Ответить на тему
 

shideb_sting ®

Стаж: 3 года 11 месяцев

Сообщений: 33

Симпатии: 62

Тюремный эксперимент в Стэнфорде (Кайл Патрик Альварез) / The Stanford Prison Experiment
Страна: США
Жанр: Триллер, драма
Год выпуска: 2015
Продолжительность: 02:01:50
Перевод: Профессиональный (многоголосый закадровый) Доп. инфо о переводе (Paradox & OMSKBIRD records)
Cубтитры: нет
Режиссер: Кайл Патрик Альварез
В ролях: Билли Крадап, Майкл Ангарано, Мойзес Ариас, Николас Браун, Гай Чарльз, Кейр Гилкрист, Ки Хонг Ли, Томас Манн, Эзра Миллер, Логан Миллер
Описание: В основу фильма положен эксперимент американского психолога. Он выбрал добровольцев, которые сыграли роль надзирателей и заключенных, и устроил им в одном корпусе настоящую тюрьму. Люди быстро освоились и, к огромному удивлению психолога, стали вести себя непредсказуемо. К чему приведет вышедший из-под контроля эксперимент?
Доп. информация:
Сценарий: Тим Тэлботт
Продюсер: Лорен Братман, Брент Эмери, Лиззи Фридман
Оператор: Джас Шелтон
Композитор: Эндрю Хьюит
Художник: Гари Барбоза, Андрес Кубиллан, Лиза Томшешин
Монтаж: Кайл Патрик Альварез
Премьера (мир): 26 января 2015
Качество видео: HDRip
Формат видео: AVI
Видео: Xvid 720x304 23.976fps 1146kbps
Аудио: Dolby AC3 48000Hz stereo 448kbps

MediaInfo

General
Complete name : Tyremniy.experiment.v.Stenforde.2015.HDRip.TAS-IX.NET.avi
Format : AVI
Format/Info : Audio Video Interleave
File size : 1.37 GiB
Duration : 2h 2mn
Overall bit rate : 1 603 Kbps
Writing application : VirtualDubMod 1.5.10.2 (build 2540/release)
Writing library : VirtualDubMod build 2540/release
Video
ID : 0
Format : MPEG-4 Visual
Format profile : Advanced [email protected]
Format settings, BVOP : 2
Format settings, QPel : No
Format settings, GMC : No warppoints
Format settings, Matrix : Default (MPEG)
Codec ID : XVID
Codec ID/Hint : XviD
Duration : 2h 2mn
Bit rate : 1 146 Kbps
Width : 720 pixels
Height : 304 pixels
Display aspect ratio : 2.35:1
Frame rate : 23.976 fps
Original frame rate : 25.000 fps
Color space : YUV
Chroma subsampling : 4:2:0
Bit depth : 8 bits
Scan type : Progressive
Compression mode : Lossy
Bits/(Pixel*Frame) : 0.218
Stream size : 1 002 MiB (71%)
Writing library : XviD 1.2.1 (UTC 2008-12-04)
Audio
ID : 1
Format : AC-3
Format/Info : Audio Coding 3
Mode extension : CM (complete main)
Format settings, Endianness : Big
Codec ID : 2000
Duration : 2h 2mn
Bit rate mode : Constant
Bit rate : 448 Kbps
Channel(s) : 2 channels
Channel positions : Front: L R
Sampling rate : 48.0 KHz
Compression mode : Lossy
Stream size : 392 MiB (28%)
Alignment : Split accross interleaves
Interleave, duration : 42 ms (1.00 video frame)
Interleave, preload duration : 500 ms

Скриншот c названием фильма

Скриншоты





Создавать темы 07-Дек-2015 20:22

[Профиль]  [ЛС] 

shideb_sting ®

Стаж: 3 года 11 месяцев

Сообщений: 33

Симпатии: 62

Во первых прощу извинение от всех при низком раздачи торрент файл. И еще с ограничением электр сети в моём городе. Буду раздавать на много дольше. Всем огромное спасибо за понимание.

Создавать темы 07-Дек-2015 20:27

[Профиль]  [ЛС] 

Hurshidd

Стаж: 2 года 5 месяцев

Сообщений: 6

Симпатии: 8

помогу с раздачей

Создавать темы 08-Дек-2015 00:03

[Профиль]  [ЛС] 

Bekzod_gulim

Стаж: 7 лет 4 месяца

Сообщений: 41

Симпатии: 5

Уважаемое киноманы! подскажите пожалуйста стоит-ли скачать? ну по проще как фильм?

Создавать темы 08-Дек-2015 13:11

[Профиль]  [ЛС] 

SkyRus

Стаж: 5 лет 10 месяцев

Сообщений: 5

фильм то не 15 года. я его года 3-4 назад смотрел

Создавать темы 22-Дек-2015 06:47

[Профиль]  [ЛС] 

kofman

Стаж: 7 лет

Сообщений: 19

в общем то это документальный фильм и стоит посмотреть

Создавать темы 20-Янв-2016 12:46

[Профиль]  [ЛС] 
Показать сообщения:    
Ответить на тему

Текущее время: 23-Ноя 14:18

Часовой пояс: UTC + 5



Вы не можете начинать темы
Вы не можете отвечать на сообщения
Вы не можете редактировать свои сообщения
Вы не можете удалять свои сообщения
Вы не можете голосовать в опросах
Вы не можете прикреплять файлы к сообщениям
Вы не можете скачивать файлы