С чего начинается Родина. Фантом / Сезон: 1 / Серии: 8-8 из 8 (Рауф Кубаев) [2014, Детектив, DVDRip]

Ответить на тему
 

Olim_83 ®

Стаж: 5 лет 7 месяцев

Сообщений: 10

Симпатии: 1

С чего начинается Родина. Фантом
Год выпуска: 2014
Производство: Россия
Жанр: Детектив
Продолжительность: 49 мин
Режиссёр: Рауф Кубаев
В ролях: Георгий Тараторкин,Елена Сафонова,Юлия Снигирь,Евгений Цыганов,Михаил Гаврилов,Александр Робак,Виктория Романенко,Елена Шевченко,Юлия Ауг,Валерий Баринов
Описание: На дворе 1985 год, начало заката великой державы и переломный момент в Холодной войне. Одни уже почувствовали «ветер перемен» и готовятся найти себе достойное место в новой жизни, другие — упрямо следуют своим представлениям о долге и профессиональной чести. Среди них — молодой офицер «без страха и упрека» Громов. Ему предстоит участвовать в спецоперации 2-го главного управления КГБ СССР, которая станет ответом на одну из крупнейших в истории советских спецслужб утечку секретной информации: после предательства высокопоставленного разведчика оказываются под угрозой сотни зарубежных агентов.
Цель операции — выйти на посольскую резидентуру ЦРУ и внедрить под видом очередного предателя специального агента, через которого можно сообщать выгодную советской стороне дезинформацию, а также выяснить каналы секретной эвакуации советских граждан под дипломатическим прикрытием. В игру вступает американская контрразведка, для нее возможный информатор — «Фантом», человек без свойств.
Действие фильма разворачивается на заре Перестройки, на фоне обострения борьбы за власть в советском руководстве. Поэтому речь идет не только о противостоянии разведок двух супер-держав, но и о внутренней борьбе между управлениями Госбезопасности. В этой шахматной партии пешками становятся простые агенты и члены их семей. Детективная и шпионская линия, таким образом, дополнена семейной драмой о повседневной жизни разведчиков.
Качество: DVDRip
Формат: AVI
Видео кодек: XviD
Аудио кодек: AC3
Видео: XviD, 704х448, 16:10,25.000 fps,802 Kbps
Аудио: AC-3,48.0 KHz,192 Kbps,2 channels,

MI

MediaInfo: General
Complete name : d:\Downloaded with Bitorrent\schego\S.chego.nachinaetsja.Rodina.1.avi
Format : AVI
Format/Info : Audio Video Interleave
File size : 349 MiB
Duration : 48mn 43s
Overall bit rate : 1 002 Kbps
Writing application : VirtualDubMod 1.5.10.2 (build 2542/release)
Writing library : VirtualDubMod build 2542/release
Video
ID : 0
Format : MPEG-4 Visual
Format profile : Advanced [email protected]
Format settings, BVOP : Yes
Format settings, QPel : No
Format settings, GMC : No warppoints
Format settings, Matrix : Default (H.263)
Codec ID : XVID
Codec ID/Hint : XviD
Duration : 48mn 43s
Bit rate : 802 Kbps
Width : 704 pixels
Height : 448 pixels
Display aspect ratio : 16:10
Frame rate : 25.000 fps
Color space : YUV
Chroma subsampling : 4:2:0
Bit depth : 8 bits
Scan type : Progressive
Compression mode : Lossy
Bits/(Pixel*Frame) : 0.102
Stream size : 280 MiB (80%)
Writing library : XviD 64
Audio
ID : 1
Format : AC-3
Format/Info : Audio Coding 3
Mode extension : CM (complete main)
Format settings, Endianness : Big
Codec ID : 2000
Duration : 48mn 43s
Bit rate mode : Constant
Bit rate : 192 Kbps
Channel(s) : 2 channels
Channel positions : Front: L R
Sampling rate : 48.0 KHz
Bit depth : 16 bits
Compression mode : Lossy
Stream size : 66.9 MiB (19%)
Alignment : Split accross interleaves
Interleave, duration : 64 ms (1.60 video frames)
Interleave, preload duration : 500 ms

Скриншоты



Создавать темы 07-Дек-2015 20:32

[Профиль]  [ЛС] 
Показать сообщения:    
Ответить на тему

Текущее время: 18-Авг 19:25

Часовой пояс: UTC + 5



Вы не можете начинать темы
Вы не можете отвечать на сообщения
Вы не можете редактировать свои сообщения
Вы не можете удалять свои сообщения
Вы не можете голосовать в опросах
Вы не можете прикреплять файлы к сообщениям
Вы не можете скачивать файлы