System of a Down - Rock in Rio (24.09.2015) [2015 г., Nu Metal, Alternative Metal, HDTVRip]

Ответить на тему
 

DXgame ®

Стаж: 5 лет 1 месяц

Сообщений: 128

Симпатии: 144

System of a Down - Rock in Rio-
Год выпуска: 2015
Жанр: Nu Metal, Alternative Metal
Продолжительность: 01:31:50
Качество: HDTVRip
Формат: MKV
Видео кодек: H.264
Аудио кодек: AC3
Видео: H.264, 1280x720 px, ~4870 Kbps, 29.97 FPS
Аудио #1: MPEG Layer 2, 256 Kbps, 48 kHz, Stereo
Аудио #2: AC3, 384 Kbps, 48 kHz, 5.1

Трэклист

1. I-E-A-I-A-I-O
2. Suite-Pee [partial]
3. Attack
4. Prison Song
5. Know
6. Aerials
7. Soldier Side - Intro
8. B.Y.O.B.
9. Soil
10. Darts
11. Radio/Video
12. Hypnotize
13. Temper
14. CUBErt
15. Needles
16. Deer Dance
17. Bounce
18. Suggestions
19. Psycho
20. Chop Suey!
21. Lonely Day
22. Question!
23. Lost in Hollywood
24. Vicinity of Obscenity
25. Forest
26. Cigaro
27. Toxicity (with Chino Moreno of Deftones)
28. Sugar

MediaInfo

General
Unique ID                      : 207293904765588030666081233142429676096 (0x9BF35A95C34C170496C721117B6A7240)
Complete name                  : E:\zDownload\System of a Down - Rock in Rio 24.09.2015.mkv
Format                         : Matroska
Format version                 : Version 4 / Version 2
File size                      : 3.54 GiB
Duration                       : 1h 31mn
Overall bit rate               : 5 512 Kbps
Encoded date                   : UTC 2015-09-26 22:12:41
Writing application            : mkvmerge v7.8.0 ('River Man') 32bit built on Mar 27 2015 16:18:02
Writing library                : libebml v1.3.1 + libmatroska v1.4.2
DURATION                       : 01:31:49.376000000
NUMBER_OF_FRAMES               : 172168
NUMBER_OF_BYTES                : 264450048
_STATISTICS_WRITING_APP        : mkvmerge v7.8.0 ('River Man') 32bit built on Mar 27 2015 16:18:02
_STATISTICS_WRITING_DATE_UTC   : 2015-09-26 22:12:41
_STATISTICS_TAGS               : BPS DURATION NUMBER_OF_FRAMES NUMBER_OF_BYTES
Video
ID                             : 1
Format                         : AVC
Format/Info                    : Advanced Video Codec
Format profile                 : [email protected]
Format settings, CABAC         : Yes
Format settings, ReFrames      : 4 frames
Codec ID                       : V_MPEG4/ISO/AVC
Duration                       : 1h 31mn
Bit rate                       : 4 762 Kbps
Width                          : 1 280 pixels
Height                         : 720 pixels
Display aspect ratio           : 16:9
Frame rate mode                : Constant
Frame rate                     : 29.970 fps
Color space                    : YUV
Chroma subsampling             : 4:2:0
Bit depth                      : 8 bits
Scan type                      : Progressive
Bits/(Pixel*Frame)             : 0.172
Stream size                    : 3.05 GiB (86%)
Writing library                : x264 core 148 r2579kMod 73ae2d1
Encoding settings              : cabac=1 / ref=3 / deblock=1:0:0 / analyse=0x3:0x133 / me=umh / subme=11 / psy=1 / fade_compensate=0.00 / psy_rd=1.00:0.00 / mixed_ref=1 / me_range=32 / chroma_me=1 / trellis=2 / 8x8dct=1 / cqm=0 / deadzone=21,11 / fast_pskip=1 / chroma_qp_offset=-2 / threads=6 / lookahead_threads=1 / sliced_threads=0 / nr=0 / decimate=1 / interlaced=0 / bluray_compat=0 / constrained_intra=0 / fgo=0 / bframes=8 / b_pyramid=2 / b_adapt=2 / b_bias=0 / direct=3 / weightb=1 / open_gop=1 / weightp=2 / keyint=150 / keyint_min=30 / scenecut=40 / intra_refresh=0 / rc_lookahead=40 / rc=crf / mbtree=1 / crf=18.6000 / qcomp=0.60 / qpmin=0 / qpmax=69 / qpstep=4 / ip_ratio=1.50 / aq=2:1.00
Language                       : English
Default                        : Yes
Forced                         : No
DURATION                       : 01:31:49.837000000
NUMBER_OF_FRAMES               : 165130
NUMBER_OF_BYTES                : 3353736990
_STATISTICS_WRITING_APP        : mkvmerge v7.8.0 ('River Man') 32bit built on Mar 27 2015 16:18:02
_STATISTICS_WRITING_DATE_UTC   : 2015-09-26 22:12:41
_STATISTICS_TAGS               : BPS DURATION NUMBER_OF_FRAMES NUMBER_OF_BYTES
Audio #1
ID                             : 2
Format                         : MPEG Audio
Format version                 : Version 1
Format profile                 : Layer 2
Codec ID                       : A_MPEG/L2
Codec ID/Hint                  : MP2
Duration                       : 1h 31mn
Bit rate mode                  : Constant
Bit rate                       : 256 Kbps
Channel(s)                     : 2 channels
Sampling rate                  : 48.0 KHz
Compression mode               : Lossy
Delay relative to video        : 5ms
Stream size                    : 168 MiB (5%)
Default                        : Yes
Forced                         : No
Audio #2
ID                             : 3
Format                         : AC-3
Format/Info                    : Audio Coding 3
Mode extension                 : CM (complete main)
Format settings, Endianness    : Big
Codec ID                       : A_AC3
Duration                       : 1h 31mn
Bit rate mode                  : Constant
Bit rate                       : 384 Kbps
Channel(s)                     : 6 channels
Channel positions              : Front: L C R, Side: L R, LFE
Sampling rate                  : 48.0 KHz
Bit depth                      : 16 bits
Compression mode               : Lossy
Delay relative to video        : 11ms
Stream size                    : 252 MiB (7%)
Default                        : No
Forced                         : No
Menu
00:00:40.000                   : en:I-E-A-I-A-I-O
00:04:21.000                   : en:Suite-Pee
00:05:26.600                   : en:Attack
00:08:39.000                   : en:Prison Song
00:12:27.000                   : en:Know
00:15:26.000                   : en:Aerials
00:19:07.600                   : en:Soldier Side - Intro
00:20:02.600                   : en:B.Y.O.B.
00:24:24.200                   : en:Soil
00:27:42.000                   : en:Darts
00:30:32.000                   : en:Radio/Video
00:34:47.000                   : en:Hypnotize
00:38:01.600                   : en:Temper
00:40:53.000                   : en:CUBErt
00:42:50.000                   : en:Needles
00:46:21.000                   : en:Deer Dance
00:49:28.000                   : en:Bounce
00:51:21.000                   : en:Suggestions
00:53:46.500                   : en:Psycho
00:58:06.600                   : en:Chop Suey!
01:01:08.000                   : en:Lonely Day
01:04:07.000                   : en:Question!
01:08:03.000                   : en:Lost in Hollywood
01:13:33.000                   : en:Vicinity of Obscenity
01:16:10.000                   : en:Forest
01:19:56.000                   : en:Cigaro
01:23:26.000                   : en:Toxicity
01:27:46.000                   : en:Sugar

Скриншоты



Создавать темы 07-Дек-2015 22:15

[Профиль]  [ЛС] 

Choris

Стаж: 2 года 6 месяцев

Сообщений: 61

Симпатии: 54

Потрясная группа спасибо

Создавать темы 08-Дек-2015 00:35

[Профиль]  [ЛС] 

beeschunmo

Стаж: 3 года 11 месяцев

Сообщений: 143

Симпатии: 11

О скорости только мечтать и приходиться! Впрочем как и о раздаче! За концерт спасибо! Дайте скачать только!

Создавать темы 09-Дек-2015 13:04

[Профиль]  [ЛС] 

DXgame ®

Стаж: 5 лет 1 месяц

Сообщений: 128

Симпатии: 144

beeschunmo, Раздаю на максимуме, на сколько позволяет линия и провайдер.

Создавать темы 09-Дек-2015 13:59

[Профиль]  [ЛС] 

beeschunmo

Стаж: 3 года 11 месяцев

Сообщений: 143

Симпатии: 11

961525beeschunmo, Раздаю на максимуме, на сколько позволяет линия и провайдер.
Очень хочется поскорее уже скачать! Как скачаю не уйду и буду оставаться на раздаче максимально долго! Только дайте докачать релиз, вернитесь и раздайте! неделю качаю уже....

Создавать темы 18-Дек-2015 00:23

[Профиль]  [ЛС] 
Показать сообщения:    
Ответить на тему

Текущее время: 22-Ноя 00:33

Часовой пояс: UTC + 5



Вы не можете начинать темы
Вы не можете отвечать на сообщения
Вы не можете редактировать свои сообщения
Вы не можете удалять свои сообщения
Вы не можете голосовать в опросах
Вы не можете прикреплять файлы к сообщениям
Вы не можете скачивать файлы