Будь мужчиной (Бен Палмер / Ben Palmer) Man up [2015, Мелодрама, комедия, HDRip]

Ответить на тему
 

shideb_sting ®

Стаж: 3 года 9 месяцев

Сообщений: 33

Симпатии: 62

Будь мужчиной (Бен Палмер) / Man Up (Ben Palmer)
Страна: Великобритания, Франция, Big Talk Productions, StudioCanal
Жанр: Мелодрама, комедия
Год выпуска: 2015
Продолжительность: 01:28:12
Перевод: Профессиональный (многоголосый закадровый) (Студия "Paradox & Omskbird records")
Cубтитры: нет
Режиссер: Бен Палмер
В ролях: Саймон Пегг, Лэйк Белл, Оливия Уильямс, Генри Ллойд-Хьюз, Офелия Ловибонд, Рори Киннер, Шэрон Хорган, Стивен Кэмпбелл Мур, Дин-Чарльз Чепмен, Кен Стотт
Описание: Одинокая женщина по ошибке попадает на свидание вслепую, которое помогает ей найти идеального бойфренда
Доп. информация:
Сценарий: Тесс Моррис
Продюсер: Джеймс Биддл, Найра Парк, Рэйчел Прайор
Оператор: Эндрю Данн
Композитор: Дикон Хинчлифф
Художник: Дик Ланн, Андреа Мэтисон, Сьюзи Харман
Монтаж: Пол Мачлисс
Премьера (мир): 19 апреля 2015 США Кинофестиваль «Трайбека»
Возраст: зрителям, достигшим 16 лет
Качество видео: HDRip
Формат видео: AVI
Видео: 720x304 24fps 1768kbps
Аудио: Dolby AC3 48000Hz 6ch 448kbps

MediaInfo

General
Complete name : Bud_muzhikom.2015.HDRip.TAS-IX.NET.avi
Format : AVI
Format/Info : Audio Video Interleave
File size : 1.37 GiB
Duration : 1h 28mn
Overall bit rate : 2 226 Kbps
Writing application : VirtualDubMod 1.5.10.2 (build 2540/release)
Writing library : VirtualDubMod build 2540/release
Video
ID : 0
Format : MPEG-4 Visual
Format profile : Advanced [email protected]
Format settings, BVOP : 2
Format settings, QPel : No
Format settings, GMC : No warppoints
Format settings, Matrix : Default (MPEG)
Codec ID : XVID
Codec ID/Hint : XviD
Duration : 1h 28mn
Bit rate : 1 769 Kbps
Width : 720 pixels
Height : 304 pixels
Display aspect ratio : 2.35:1
Frame rate : 24.000 fps
Color space : YUV
Chroma subsampling : 4:2:0
Bit depth : 8 bits
Scan type : Progressive
Compression mode : Lossy
Bits/(Pixel*Frame) : 0.337
Stream size : 1.09 GiB (79%)
Writing library : XviD 1.2.1 (UTC 2008-12-04)
Audio
ID : 1
Format : AC-3
Format/Info : Audio Coding 3
Mode extension : CM (complete main)
Format settings, Endianness : Big
Codec ID : 2000
Duration : 1h 28mn
Bit rate mode : Constant
Bit rate : 448 Kbps
Channel(s) : 6 channels
Channel positions : Front: L C R, Side: L R, LFE
Sampling rate : 48.0 KHz
Compression mode : Lossy
Stream size : 283 MiB (20%)
Alignment : Split accross interleaves
Interleave, duration : 42 ms (1.00 video frame)
Interleave, preload duration : 500 ms

Скриншот c названием фильма

Скриншоты







Последний раз редактировалось: shideb_sting (2015-12-08 08:20), всего редактировалось 1 раз

Создавать темы 07-Дек-2015 23:02

[Профиль]  [ЛС] 

shideb_sting ®

Стаж: 3 года 9 месяцев

Сообщений: 33

Симпатии: 62

Во первых прощу извинение от всех при низком раздачи торрент файл. И еще с ограничением электр сети в моём городе. Буду раздавать на много дольше. Всем огромное спасибо за понимание.

Создавать темы 07-Дек-2015 23:04

[Профиль]  [ЛС] 
Показать сообщения:    
Ответить на тему

Текущее время: 24-Сен 19:07

Часовой пояс: UTC + 5



Вы не можете начинать темы
Вы не можете отвечать на сообщения
Вы не можете редактировать свои сообщения
Вы не можете удалять свои сообщения
Вы не можете голосовать в опросах
Вы не можете прикреплять файлы к сообщениям
Вы не можете скачивать файлы