По велению адской сестры: Взрыв [ТВ-2] / Shinmai Maou no Testament Burst [TV-2] [10 из 10] [Без хардсаба] [RUS(int)] [комедия, этти, мистика, романтика, школа, HDTVRip] [720p] [AniDub]

Ответить на тему
 

maksimus_1712 ®

Стаж: 4 года 2 месяца

Сообщений: 122

Симпатии: 68

По велению адской сестры: Взрыв
Shinmai Maou no Testament Burst
- Год: 2015
Жанр: комедия, этти, мистика, романтика, школа
Страна: Япония
Количество серий: 10
Продолжительность: 25 мин.
Дата выпуска: c 10.10.2015
Автор оригинала / Сценарист: Уэсу Тэцуто
Озвучивание: Ancord, Nika Lenina
Перевод: FooBoo
Тайминг и работа со звуком: Felix-Режиссер: Сайто Хисаси
Студия: -Описание: Золгир повержен. Басара, Юки, Мио и Мария продолжают свою временно мирную жизнь.
Но тот, кто стоит за Золгиром все еще жив. И новый владыка тьмы Леонард обращает на них свое внимание.
Возвращаются мама Марии и Зэст.
Грядет новая битва...
World Art-Качество: HDTVRip
Формат видео: MP4
Видео: x264,1280x720,1981kbps,23.976fps
Аудио: ААС, 44100Hz, ~151kbps, 2ch-

Отличия

https://tas-ix.net/viewtopic.php?t=109734- альтернативная озвучка

Эпизоды:

01. Что же я могу сделать для тебя
02. Подозрение, кроющееся в загадках
03. Мои заветные чувства к тебе
04. Посреди плетущихся заговоров
05. Ветер, дующий на поле боя
06. Между реальностью и правдой одного
07. Между коварными планами и желаниями
08. Сражающиеся за будущее
09. За гранью бесконечного сна

MediaInfo

General
Complete name                  : Shinmai Maou no Testament Burst [01]-[10] [AniDub].mp4
Format                         : MPEG-4
Format profile                 : Base Media
Codec ID                       : isom
File size                      : 369 MiB
Duration                       : 24mn 6s
Overall bit rate mode          : Variable
Overall bit rate               : 2 139 Kbps
Writing application            : Lavf56.25.101
Video
ID                             : 1
Format                         : AVC
Format/Info                    : Advanced Video Codec
Format profile                 : [email protected]
Format settings, CABAC         : Yes
Format settings, ReFrames      : 4 frames
Codec ID                       : avc1
Codec ID/Info                  : Advanced Video Coding
Duration                       : 24mn 6s
Bit rate                       : 1 980 Kbps
Width                          : 1 280 pixels
Height                         : 720 pixels
Display aspect ratio           : 16:9
Frame rate mode                : Constant
Frame rate                     : 23.976 fps
Color space                    : YUV
Chroma subsampling             : 4:2:0
Bit depth                      : 8 bits
Scan type                      : Progressive
Bits/(Pixel*Frame)             : 0.090
Stream size                    : 342 MiB (93%)
Writing library                : x264 core 142
Encoding settings              : cabac=1 / ref=3 / deblock=1:0:0 / analyse=0x3:0x113 / me=hex / subme=7 / psy=1 / psy_rd=1.00:0.00 / mixed_ref=1 / me_range=16 / chroma_me=1 / trellis=1 / 8x8dct=1 / cqm=0 / deadzone=21,11 / fast_pskip=1 / chroma_qp_offset=-2 / threads=4 / lookahead_threads=1 / sliced_threads=0 / nr=0 / decimate=1 / interlaced=0 / bluray_compat=0 / constrained_intra=0 / bframes=3 / b_pyramid=2 / b_adapt=1 / b_bias=0 / direct=1 / weightb=1 / open_gop=0 / weightp=2 / keyint=24 / keyint_min=2 / scenecut=40 / intra_refresh=0 / rc_lookahead=24 / rc=2pass / mbtree=1 / bitrate=1980 / ratetol=1.0 / qcomp=0.60 / qpmin=0 / qpmax=69 / qpstep=4 / cplxblur=20.0 / qblur=0.5 / ip_ratio=1.40 / aq=1:1.00
Audio
ID                             : 2
Format                         : AAC
Format/Info                    : Advanced Audio Codec
Format profile                 : LC
Codec ID                       : 40
Duration                       : 24mn 6s
Duration_LastFrame             : -14ms
Bit rate mode                  : Variable
Bit rate                       : 152 Kbps
Maximum bit rate               : 192 Kbps
Channel(s)                     : 2 channels
Channel positions              : Front: L R
Sampling rate                  : 44.1 KHz
Compression mode               : Lossy
Delay relative to video        : 83ms
Stream size                    : 26.2 MiB (7%)

Скриншоты



Последний раз редактировалось: maksimus_1712 (2015-12-17 21:31), всего редактировалось 3 раз(а)

Создавать темы 07-Дек-2015 23:54

[Профиль]  [ЛС] 

Choris

Стаж: 2 года 5 месяцев

Сообщений: 61

Симпатии: 54

[09 из 10]
maksimus_1712, Разве не 9 из 12ти?

Создавать темы 08-Дек-2015 00:31

[Профиль]  [ЛС] 

maksimus_1712 ®

Стаж: 4 года 2 месяца

Сообщений: 122

Симпатии: 68

961381
[09 из 10]
maksimus_1712, Разве не 9 из 12ти?
-На AniDub написано 9 из 10

Скрин

Создавать темы 08-Дек-2015 00:41

[Профиль]  [ЛС] 

Choris

Стаж: 2 года 5 месяцев

Сообщений: 61

Симпатии: 54

понятно а то уж думал ошибся

Создавать темы 08-Дек-2015 13:19

[Профиль]  [ЛС] 

Daz1K

Стаж: 2 года 1 месяц

Сообщений: 3

А когда будет финальная серия ? подскажите пожалуйста

Создавать темы 14-Дек-2015 13:41

[Профиль]  [ЛС] 

maksimus_1712 ®

Стаж: 4 года 2 месяца

Сообщений: 122

Симпатии: 68

962145А когда будет финальная серия ? подскажите пожалуйста
-Сегодня

Создавать темы 14-Дек-2015 16:11

[Профиль]  [ЛС] 

maksimus_1712 ®

Стаж: 4 года 2 месяца

Сообщений: 122

Симпатии: 68

962145А когда будет финальная серия ? подскажите пожалуйста
-Завтра, на анидабе изменили файл

Создавать темы 14-Дек-2015 22:05

[Профиль]  [ЛС] 

maksimus_1712 ®

Стаж: 4 года 2 месяца

Сообщений: 122

Симпатии: 68

10-Серия

Создавать темы 15-Дек-2015 16:35

[Профиль]  [ЛС] 

Топик был перенесен из форума Аниме онгоинги в форум HD, HDTVRip
SNIL

Создавать темы 15-Дек-2015 20:44

 

Daz1K

Стаж: 2 года 1 месяц

Сообщений: 3

Автору респект побольше релизов =)

Создавать темы 15-Дек-2015 23:20

[Профиль]  [ЛС] 

uzumakinaruto_2012

Стаж: 4 года 5 месяцев

Сообщений: 5

maksimus_1712,

Создавать темы 17-Дек-2015 19:36

[Профиль]  [ЛС] 

maksimus_1712 ®

Стаж: 4 года 2 месяца

Сообщений: 122

Симпатии: 68

962645maksimus_1712,
-Что?

Создавать темы 18-Дек-2015 00:35

[Профиль]  [ЛС] 

farik9193

Стаж: 4 года 11 месяцев

Сообщений: 501

Симпатии: 47

кто не будь залёт в БД ?

Создавать темы 29-Дек-2015 20:28

[Профиль]  [ЛС] 

Razrushitel

Стаж: 4 года 3 месяца

Сообщений: 148

Симпатии: 42

farik9193, Сериал только недавно кончился, не думаю что уже БД вышла!)

Создавать темы 29-Дек-2015 21:04

[Профиль]  [ЛС] 

First Wolf

Стаж: 4 года 5 месяцев

Сообщений: 7

Симпатии: 2

народ дайте скорости

Создавать темы 01-Мар-2016 07:28

[Профиль]  [ЛС] 
Показать сообщения:    
Ответить на тему

Текущее время: 22-Окт 00:39

Часовой пояс: UTC + 5



Вы не можете начинать темы
Вы не можете отвечать на сообщения
Вы не можете редактировать свои сообщения
Вы не можете удалять свои сообщения
Вы не можете голосовать в опросах
Вы не можете прикреплять файлы к сообщениям
Вы не можете скачивать файлы