Подражатель / The Wannabe [2015, США, триллер, драма, криминал, детектив, WEB-DLRip] (Sunshine Studio)

Ответить на тему
 

shideb_sting ®

Стаж: 3 года 9 месяцев

Сообщений: 33

Симпатии: 62

Подражатель / The Wannabe
Страна: США
Жанр: триллер, драма, криминал, детектив
Год выпуска: 2015
Продолжительность: 01:30:52
Перевод: Любительский (двухголосый закадровый) [Sunshine Studio]
Cубтитры: нет
Режиссер: Ник Сэндоу
В ролях: Патриция Аркетт, Дэвид Зайас, Майкл Империоли, Винсент Пьяцца, Доменик Ломбардоззи, Ник Сэндоу, Майк Старр, Даг Э. Даг, Ларри Юден, Слэйн, Нил Хафф, Адриана ДеМео
Описание: Действие фильма происходит в 1992 году в Нью-Йорке. Мелкий жулик Томас Греко – истинный фанат мафии и классических гангстерских фильмов. Он пытается найти способ, благодаря которому один из его героев, босс мафии Джон Готти, судимый за многочисленные преступления в федеральном суде, может быть оправдан. В эпоху, когда большинство членов банд носят спортивные костюмы, Томас старается выглядеть как парни из старых фильмов. Чем, вероятно, и привлекает внимание Роуз, пожилой женщины, в которой находит единомышленницу.
Доп. информация:
Сценарий: Ник Сэндоу
Продюсер: Michael Gasparro, Лиззи Настро, Винсент Пьяцца
Оператор: Бретт Павлак
Композитор: Нэйтан Ларсон
Художник: Томмазо Ортино, Цейра Уэллс, Филиппа Кулпеппер
Монтаж: Мелоди Лондон
Премьера (мир): 17 апреля 2015 США Кинофестиваль «Трайбека»
Качество видео: WEB-DLRip
Формат видео: AVI
Видео: Xvid 720x304 23.976fps 1943kbps
Аудио: Dolby AC3 48000Hz stereo 192kbps

MediaInfo

General
Complete name :The Wannabe.2015.WEB-DLRip.1400MB.TAS-IX.NET.avi
Format : AVI
Format/Info : Audio Video Interleave
File size : 1.36 GiB
Duration : 1h 30mn
Overall bit rate : 2 145 Kbps
Writing application : VirtualDubMod 1.5.10.3 | www.virtualdub-fr.org || (build 2550/release)
Writing library : VirtualDubMod build 2550/release
Video
ID : 0
Format : MPEG-4 Visual
Format profile : Advanced [email protected]
Format settings, BVOP : 2
Format settings, QPel : No
Format settings, GMC : No warppoints
Format settings, Matrix : Default (MPEG)
Codec ID : XVID
Codec ID/Hint : XviD
Duration : 1h 30mn
Bit rate : 1 943 Kbps
Width : 720 pixels
Height : 304 pixels
Display aspect ratio : 2.35:1
Frame rate : 23.976 fps
Color space : YUV
Chroma subsampling : 4:2:0
Bit depth : 8 bits
Scan type : Progressive
Compression mode : Lossy
Bits/(Pixel*Frame) : 0.370
Stream size : 1.23 GiB (91%)
Writing library : XviD 1.2.1 (UTC 2008-12-04)
Audio
ID : 1
Format : AC-3
Format/Info : Audio Coding 3
Mode extension : CM (complete main)
Format settings, Endianness : Big
Codec ID : 2000
Duration : 1h 30mn
Bit rate mode : Constant
Bit rate : 192 Kbps
Channel(s) : 2 channels
Channel positions : Front: L R
Sampling rate : 48.0 KHz
Compression mode : Lossy
Stream size : 125 MiB (9%)
Alignment : Split accross interleaves
Interleave, duration : 42 ms (1.00 video frame)
Interleave, preload duration : 500 ms

Скриншот c названием фильма

Скриншоты







Последний раз редактировалось: shideb_sting (2015-12-08 08:16), всего редактировалось 1 раз

Создавать темы 08-Дек-2015 06:36

[Профиль]  [ЛС] 
Показать сообщения:    
Ответить на тему

Текущее время: 24-Сен 01:01

Часовой пояс: UTC + 5



Вы не можете начинать темы
Вы не можете отвечать на сообщения
Вы не можете редактировать свои сообщения
Вы не можете удалять свои сообщения
Вы не можете голосовать в опросах
Вы не можете прикреплять файлы к сообщениям
Вы не можете скачивать файлы