Метод, Серии: 16 из 16 (Юрий Быков) [2015, Психологический триллер, WEB-DL 720p]

Ответить на тему
 

odamcha ®

Стаж: 7 лет 5 месяцев

Сообщений: 137

Симпатии: 13

Метод
Год выпуска: 2015
Производство: Росиия
Жанр: Психологический триллер
Продолжительность: ~00:50:00
Режиссёр: Юрий Быков
В ролях: Константин Хабенский, Паулина Андреева, Виталий Кищенко, Александр Цекало, Екатерина Дубакина, Александр Петров (III), Тимофей Трибунцев, Игорь Савочкин, Алексей Серебряков, Юрий Колокольников, Юрий Быков, Ян Цапник, Захар Кабанов, Наталья Унгард, Валентин Самохин, Сергей Беляев, Мария Бородина (II), Юлия Полынская, Олег Васильков, Яна Енжаева, Марина Правкина, Александра Лупашко, Марина Кондратьева (II), Сергей Романович, Александр Чередник, Владимир Яканин, Евгений Кулаков, Вера Панфилова, Николай Ширяев, Роман Смирнов (II), Виктор Цекало, Сергей Сосновский, Алексей Долгушин, Сергей Белов, Иван Добронравов, Арсений Перель, Александра Булычёва
Описание: Родион Меглин — загадочный следователь, который с успехом разгадывает даже самые изощренные преступления. Каков его секретный метод, никто не знает. Молодая Есеня, попав к герою в стажеры, начинает понимать, что Родион — сам маньяк. Именно поэтому он с такой легкостью раскрывает разнообразные дела.
Все раздачи сериала: tas-ix.net
Качество: WEB-DL 720p
Формат: MKV
Видео кодек: MPEG-4 AVC
Аудио кодек: AC3
Видео: MPEG-4 AVC, 1280x720, ~ 3200 Кбит/с
Аудио: AC3, 2 ch, 192 Кбит/с

MI

Format : Matroska
Format version : Version 2
File size : 1.12 GiB
Duration : 53mn 30s
Overall bit rate : 2 983 Kbps
Encoded date : UTC 2015-11-16 14:26:10
Writing application : mkvmerge v5.8.0 ('No Sleep / Pillow') built on Sep 2 2012 15:37:04
Writing library : libebml v1.2.3 + libmatroska v1.3.0
Video
ID : 1
Format : AVC
Format/Info : Advanced Video Codec
Format profile : [email protected]
Format settings, CABAC : Yes
Format settings, ReFrames : 5 frames
Codec ID : V_MPEG4/ISO/AVC
Duration : 53mn 30s
Bit rate : 2 732 Kbps
Width : 1 280 pixels
Height : 720 pixels
Display aspect ratio : 16:9
Frame rate mode : Constant
Frame rate : 25.000 fps
Color space : YUV
Chroma subsampling : 4:2:0
Bit depth : 8 bits
Scan type : Progressive
Bits/(Pixel*Frame) : 0.119
Stream size : 1.02 GiB (92%)
Language : Russian
Default : Yes
Forced : Yes
Audio
ID : 2
Format : AC-3
Format/Info : Audio Coding 3
Mode extension : CM (complete main)
Format settings, Endianness : Big
Codec ID : A_AC3
Duration : 53mn 30s
Bit rate mode : Constant
Bit rate : 192 Kbps
Channel count : 2 channels
Channel positions : Front: L R
Sampling rate : 48.0 KHz
Bit depth : 16 bits
Compression mode : Lossy
Stream size : 73.5 MiB (6%)
Language : Russian
Default : Yes
Forced : Yes

Скриншоты



Источник: rutor.org


Последний раз редактировалось: odamcha (2016-02-06 12:38), всего редактировалось 2 раз(а)

Создавать темы 08-Дек-2015 09:34

[Профиль]  [ЛС] 

oimd

Стаж: 1 год 10 месяцев

Сообщений: 5

Симпатии: 3

Раздача будет продолжаться вроде золото?

Создавать темы 21-Дек-2015 21:02

[Профиль]  [ЛС] 

aziz132516

Стаж: 4 года 7 месяцев

Сообщений: 9

odamcha, ДАЙ СКОРОСТЬ

Создавать темы 02-Мар-2017 10:38

[Профиль]  [ЛС] 

kolin 2

Стаж: 5 лет 8 месяцев

Сообщений: 60

Симпатии: 1

Встаньте на раздачу, пожалуйста дайте скорости.

Создавать темы 15-Май-2017 20:31

[Профиль]  [ЛС] 

kolin 2

Стаж: 5 лет 8 месяцев

Сообщений: 60

Симпатии: 1

Встаньте на раздачу, дайте скорости.

Создавать темы 25-Май-2017 13:16

[Профиль]  [ЛС] 

kolin 2

Стаж: 5 лет 8 месяцев

Сообщений: 60

Симпатии: 1

Дайте скорости.(((((((((

Создавать темы 06-Июн-2017 22:07

[Профиль]  [ЛС] 
Показать сообщения:    
Ответить на тему

Текущее время: 22-Сен 04:11

Часовой пояс: UTC + 5



Вы не можете начинать темы
Вы не можете отвечать на сообщения
Вы не можете редактировать свои сообщения
Вы не можете удалять свои сообщения
Вы не можете голосовать в опросах
Вы не можете прикреплять файлы к сообщениям
Вы не можете скачивать файлы