Valkyrie Drive: Mermaid / Сила Валькирии: Русалочка [12 из 12] [экшен, этти, фентези] [RUS, JAP] (SHIZA-project) 2015 HDTVRip 720p

Ответить на тему
 

SNIL ®

Стаж: 5 лет 7 месяцев

Сообщений: 2624

Симпатии: 341

Valkyrie Drive: Mermaid
Сила Валькирии: Русалочка
- Производство: Япония
Жанр: экшен, этти, фентези
Тип: ТВ (>12 эп.), 25 мин.
Выпуск: c 10.10.2015
Студия: ARMS
Режиссёр: Канэко Хираку-Описание: События разворачиваются на одном из пяти островов мира. Мамори живёт на одном из них. Однажды она подверглась нападению неизвестных врагов, и тут ей на помощь приходит недавно прибывшая девушка по имени Мирей. В тот момент, когда гибель была совсем близка, Мирей целует Мамори и та превращается в меч, с его помощью атаку врага удается отбить.-Автор рипа: Ohys-raws
Видео: x264, 1280x720, ~2200 kbps, 23,976 fps
Аудио RUS: AAC, 192 kbps, 48 kHz, 2 ch
Аудио JAP: AAC, 209 kbps, 48 kHz, 2 ch-Перевод: Jenia aka Zub, Мария Гостюхина
NesTea - озвучивание женских ролей 1-12
Aska - озвучивание женских ролей 1-12
Dancel - озвучивание мужских ролей 1-2
tengu - работа со звуком
M1nta - работа над таймингом

Подробные тех. данные

General
      Format : MPEG-4
      Format profile : Base Media
      Codec ID : isom
      File size : 453 MiB
      Duration : 24mn 0s
      Overall bit rate mode : Variable
      Overall bit rate : 2 641 Kbps
      Encoded date : UTC 2015-10-10 15:54:14
      Tagged date : UTC 2015-10-10 15:54:14
      Writing application : Yamb 2.1.0.0 [http://yamb.unite-video.com]
   Video #1
      ID : 1
      Format : AVC
      Format/Info : Advanced Video Codec
      Format profile : [email protected]
      Format settings, CABAC : Yes
      Format settings, ReFrames : 4 frames
      Codec ID : avc1
      Codec ID/Info : Advanced Video Coding
      Duration : 24mn 0s
      Bit rate : 2 235 Kbps
      Maximum bit rate : 10.2 Mbps
      Width : 1 280 pixels
      Height : 720 pixels
      Display aspect ratio : 16:9
      Frame rate mode : Constant
      Frame rate : 23.976 fps
      Color space : YUV
      Chroma subsampling : 4:2:0
      Bit depth : 8 bits
      Scan type : Progressive
      Bits/(Pixel*Frame) : 0.101
      Stream size : 384 MiB (85%)
      Title : www.SHIZA-Project.com
      Writing library : x264 core 148 r2597 e86f3a1
      Encoding settings : cabac=1 / ref=3 / deblock=1:0:0 / analyse=0x1:0x111 / me=hex / subme=7 / psy=1 / psy_rd=1.00:0.00 / mixed_ref=1 / me_range=16 / chroma_me=1 / trellis=1 / 8x8dct=0 / cqm=0 / deadzone=21,11 / fast_pskip=1 / chroma_qp_offset=-2 / threads=12 / lookahead_threads=2 / sliced_threads=0 / nr=0 / decimate=1 / interlaced=0 / bluray_compat=0 / constrained_intra=0 / bframes=3 / b_pyramid=2 / b_adapt=1 / b_bias=0 / direct=1 / weightb=1 / open_gop=0 / weightp=2 / keyint=240 / keyint_min=1 / scenecut=40 / intra_refresh=0 / rc_lookahead=40 / rc=crf / mbtree=1 / crf=20.0 / qcomp=0.60 / qpmin=0 / qpmax=69 / qpstep=4 / ip_ratio=1.40 / aq=1:1.50
      Language : Japanese
      Encoded date : UTC 2015-10-10 15:06:50
      Tagged date : UTC 2015-10-10 15:54:37
      Color primaries : BT.709
      Transfer characteristics : BT.709
      Matrix coefficients : BT.709
   Audio #2
      ID : 2
      Format : AAC
      Format/Info : Advanced Audio Codec
      Format profile : LC
      Codec ID : 40
      Duration : 24mn 0s
      Bit rate mode : Variable
      Bit rate : 192 Kbps
      Maximum bit rate : 246 Kbps
      Channel(s) : 2 channels
      Channel positions : Front: L R
      Sampling rate : 48.0 KHz
      Compression mode : Lossy
      Stream size : 33.0 MiB (7%)
      Title : Dancel, Aska, NesTea
      Language : Russian
      Encoded date : UTC 2015-10-10 15:54:34
      Tagged date : UTC 2015-10-10 15:54:37
   Audio #3
      ID : 3
      Format : AAC
      Format/Info : Advanced Audio Codec
      Format profile : LC
      Codec ID : 40
      Duration : 24mn 0s
      Bit rate mode : Variable
      Bit rate : 209 Kbps
      Maximum bit rate : 246 Kbps
      Channel(s) : 2 channels
      Channel positions : Front: L R
      Sampling rate : 48.0 KHz
      Compression mode : Lossy
      Stream size : 35.8 MiB (8%)
      Title : JAP Original
      Language : Japanese
      Encoded date : UTC 2015-10-10 15:54:34
      Tagged date : UTC 2015-10-10 15:54:37

Скриншоты



Последний раз редактировалось: SNIL (2016-01-08 18:26), всего редактировалось 3 раз(а)

Создавать темы 09-Дек-2015 08:01

[Профиль]  [ЛС] 

SNIL ®

Стаж: 5 лет 7 месяцев

Сообщений: 2624

Симпатии: 341

Серия 10

Создавать темы 15-Дек-2015 14:58

[Профиль]  [ЛС] 

daniellya

Стаж: 5 лет 4 месяца

Сообщений: 338

Симпатии: 29

О__о
Чейта тему обновили.
Там 11-12 за раз покажут? До НГ хотелось бы посмотреть и закончить эту аниму )
Если они в эти 2 серии не уложатся, то раскрытие не открытых тем db хватит на 2 сезон.
P.S у смайлика как-то быстро двигаются брови, как будто это нервное хD

Комментарий от SNIL


Ждём, чо поделать!
P.S При заливки торрент глюкнул, пришлось старую тему выбросить и новую делать!

Создавать темы 23-Дек-2015 22:07

[Профиль]  [ЛС] 

SNIL ®

Стаж: 5 лет 7 месяцев

Сообщений: 2624

Симпатии: 341

Серия 11

Создавать темы 28-Дек-2015 15:42

[Профиль]  [ЛС] 

daniellya

Стаж: 5 лет 4 месяца

Сообщений: 338

Симпатии: 29

э блин, не успели они до нового года последнюю серию озвучить.
Я хз почему, но моя подпись в профиле не высвечивается, напишу сюда
Уехал встречать Новый Год. Вернусь через 2 недели. С праздником )

Комментарий от SNIL


Удачного НГ)

Создавать темы 29-Дек-2015 19:21

[Профиль]  [ЛС] 

Топик был перенесен из форума Аниме онгоинги в форум HD, HDTVRip
SNIL

Создавать темы 08-Янв-2016 18:26

 

ira1972

Стаж: 2 года

Сообщений: 1

а раздача будет?

Комментарий от SNIL


Я на раздаче! Да и скачало этот релиз туча народу (просто они слетели с сидов из за падения сервера, если заметят что я восстановил релиз то вполне могут вернутся)

Создавать темы 09-Янв-2016 15:34

[Профиль]  [ЛС] 

Daz1K

Стаж: 1 год 11 месяцев

Сообщений: 3

SNIL, не подскажите почему скорость у меня по нолям скачано 0% 0мб скорости нет совсем хотя сидов 5 и личеров 5 неужели сервер не восстановили ?

Комментарий от SNIL


Вы кого нибудь видите в сидах или пирах?

Создавать темы 11-Янв-2016 11:34

[Профиль]  [ЛС] 

daniellya

Стаж: 5 лет 4 месяца

Сообщений: 338

Симпатии: 29

Йо, я вернулся. Смотрю сервак у вас падал, сейчас восстановили или трабла еще есть?

Комментарий от SNIL


Пока нет! На внешке весим!

Создавать темы 13-Янв-2016 20:56

[Профиль]  [ЛС] 

daniellya

Стаж: 5 лет 4 месяца

Сообщений: 338

Симпатии: 29

Я считаю, что аниме 2015 года - это аниме, а не днище Сидония от аутиста Нихея. Тут тентакли эпичнее и графон не такое мыло. хD

Создавать темы 16-Янв-2016 09:36

[Профиль]  [ЛС] 

Palach-33

Стаж: 3 года 8 месяцев

Сообщений: 2

дайте пож скорость

Создавать темы 04-Фев-2016 04:59

[Профиль]  [ЛС] 
Показать сообщения:    
Ответить на тему

Текущее время: 22-Авг 23:52

Часовой пояс: UTC + 5



Вы не можете начинать темы
Вы не можете отвечать на сообщения
Вы не можете редактировать свои сообщения
Вы не можете удалять свои сообщения
Вы не можете голосовать в опросах
Вы не можете прикреплять файлы к сообщениям
Вы не можете скачивать файлы