Воздух / Air (Кристиан Кантамесса) [2014, США, фантастика, триллер, BDRip-AVC] (MVO : лицензия R5) (Sub Eng)

Ответить на тему
 

ziyod ®

Стаж: 7 лет 5 месяцев

Сообщений: 367

Симпатии: 60

Воздух / Air
Страна: США
Жанр: фантастика, триллер
Год выпуска: 2014
Продолжительность: 01:34:28
Перевод: Профессиональный (многоголосый закадровый) Доп. инфо о переводе лицензия R5
Cубтитры: английские
Режиссер: Кристиан Кантамесса
В ролях: Норман Ридус, Джимон Хонсу, Сандрин Холт, Майкл Хоган, Питер Бенсон, Дэвид Найкл, Паула Линдберг, Стив Бёрджесс
Описание: В центре сюжета два человека, герои Ридуса и Хонсу. Атмосфера стала совершенно непригодной для жизни, настал апокалипсис. Но у человечества еще есть шанс на спасение. Группа людей, ученых, выжила, благодаря криогенной заморозке. Только они способны спасти жизнь на Земле, и главным героям предстоит охранять их криогенный сон. Но, как оказалось, это задача не из самых простых. Впереди ребят ожидают неимоверные испытания.
Качество видео: BDRip-AVC
Формат видео: MKV
Видео: x.264, 1144x480 (2.40:1), 2557 kbps, 23,976 fps, 0.194 bit/pixel
Аудио: 48 kHz, AC3 Dolby Digital, 3/2 (L,C,R,l,r) + LFE ch, 384.00 kbps
Формат субтитров: softsub (SRT)

MediaInfo

General
Unique ID : 243980892279500873660617755492434118426 (0xB78D02B8A4CFCB15AD34D176F605071A)
Complete name : Air.2015.P.BDRip-AVC.mkv
Format : Matroska
Format version : Version 4 / Version 2
File size : 1.94 GiB
Duration : 1h 34mn
Overall bit rate : 2 942 Kbps
Encoded date : UTC 2015-11-07 12:17:51
Writing application : mkvmerge v7.6.0 ('Garden of Dreams') 32bit built on Feb 8 2015 12:51:39
Writing library : libebml v1.3.1 + libmatroska v1.4.2
DURATION : 01:29:12.569000000
NUMBER_OF_FRAMES : 750
NUMBER_OF_BYTES : 25723
_STATISTICS_WRITING_APP : mkvmerge v7.6.0 ('Garden of Dreams') 32bit built on Feb 8 2015 12:51:39
_STATISTICS_WRITING_DATE_UT : 2015-11-07 12:17:51
_STATISTICS_TAGS : BPS DURATION NUMBER_OF_FRAMES NUMBER_OF_BYTES
Video
ID : 1
Format : AVC
Format/Info : Advanced Video Codec
Format profile : [email protected]
Format settings, CABAC : Yes
Format settings, ReFrames : 10 frames
Codec ID : V_MPEG4/ISO/AVC
Duration : 1h 34mn
Bit rate : 2 557 Kbps
Width : 1 144 pixels
Height : 480 pixels
Display aspect ratio : 2.40:1
Frame rate mode : Constant
Frame rate : 23.976 fps
Color space : YUV
Chroma subsampling : 4:2:0
Bit depth : 8 bits
Scan type : Progressive
Bits/(Pixel*Frame) : 0.194
Stream size : 1.65 GiB (85%)
Writing library : x264 core 148 r2597M e86f3a1
Encoding settings : cabac=1 / ref=10 / deblock=1:-2:-2 / analyse=0x3:0x133 / me=umh / subme=11 / psy=1 / psy_rd=1.00:0.00 / mixed_ref=1 / me_range=48 / chroma_me=1 / trellis=2 / 8x8dct=1 / cqm=0 / deadzone=21,11 / fast_pskip=0 / chroma_qp_offset=-2 / threads=10 / lookahead_threads=2 / sliced_threads=0 / nr=0 / decimate=1 / interlaced=0 / bluray_compat=0 / constrained_intra=0 / bframes=11 / b_pyramid=2 / b_adapt=2 / b_bias=0 / direct=3 / weightb=1 / open_gop=0 / weightp=2 / keyint=250 / keyint_min=23 / scenecut=40 / intra_refresh=0 / rc=2pass / mbtree=0 / bitrate=2557 / ratetol=1.0 / qcomp=0.70 / qpmin=0 / qpmax=69 / qpstep=4 / cplxblur=20.0 / qblur=0.5 / ip_ratio=1.40 / pb_ratio=1.30 / aq=1:0.80
Language : English
Default : Yes
Forced : No
DURATION : 01:34:28.038000000
NUMBER_OF_FRAMES : 135897
NUMBER_OF_BYTES : 1810855114
_STATISTICS_WRITING_APP : mkvmerge v7.6.0 ('Garden of Dreams') 32bit built on Feb 8 2015 12:51:39
_STATISTICS_WRITING_DATE_UT : 2015-11-07 12:17:51
_STATISTICS_TAGS : BPS DURATION NUMBER_OF_FRAMES NUMBER_OF_BYTES
Audio
ID : 2
Format : AC-3
Format/Info : Audio Coding 3
Mode extension : CM (complete main)
Format settings, Endianness : Big
Codec ID : A_AC3
Duration : 1h 34mn
Bit rate mode : Constant
Bit rate : 384 Kbps
Channel(s) : 6 channels
Channel positions : Front: L C R, Side: L R, LFE
Sampling rate : 48.0 KHz
Compression mode : Lossy
Stream size : 259 MiB (13%)
Title : MVO | DED 5.1 @ 384 kbps - R5
Language : Russian
Default : Yes
Forced : No
Text #1
ID : 3
Format : UTF-8
Codec ID : S_TEXT/UTF8
Codec ID/Info : UTF-8 Plain Text
Title : Full
Language : English
Default : No
Forced : No
Text #2
ID : 4
Format : UTF-8
Codec ID : S_TEXT/UTF8
Codec ID/Info : UTF-8 Plain Text
Title : SDH
Language : English
Default : No
Forced : No
Menu
00:00:00.000 : :(01)00:00:00:000
00:04:29.227 : :(02)00:04:29:227
00:09:10.424 : :(03)00:09:10:424
00:16:31.573 : :(04)00:16:31:573
00:23:10.555 : :(05)00:23:10:555
00:28:58.236 : :(06)00:28:58:236
00:34:35.907 : :(07)00:34:35:907
00:40:38.644 : :(08)00:40:38:644
00:45:14.795 : :(09)00:45:14:795
00:49:08.695 : :(10)00:49:08:695
00:54:54.624 : :(11)00:54:54:624
00:59:38.491 : :(12)00:59:38:491
01:04:56.475 : :(13)01:04:56:475
01:13:30.280 : :(14)01:13:30:280
01:19:13.457 : :(15)01:19:13:457
01:23:40.140 : :(16)01:23:40:140

Скриншоты





Последний раз редактировалось: ziyod (2015-12-24 16:12), всего редактировалось 3 раз(а)

Создавать темы 09-Дек-2015 16:26

[Профиль]  [ЛС] 

ulkiora5

Стаж: 4 года 2 месяца

Сообщений: 50

Симпатии: 25

Ну как кино стоящее?

Создавать темы 09-Дек-2015 16:42

[Профиль]  [ЛС] 
Показать сообщения:    
Ответить на тему

Текущее время: 22-Авг 21:55

Часовой пояс: UTC + 5



Вы не можете начинать темы
Вы не можете отвечать на сообщения
Вы не можете редактировать свои сообщения
Вы не можете удалять свои сообщения
Вы не можете голосовать в опросах
Вы не можете прикреплять файлы к сообщениям
Вы не можете скачивать файлы