Жизнь / Life (Антон Корбейн) [2015, США, Германия, Канада, Австралия, драма, биография, WEB-DLRip] DVO [Parovoz Production]

Ответить на тему
 

ruhal ®

Стаж: 2 года 8 месяцев

Сообщений: 1181

Симпатии: 1836

- -Жизнь / Life- - Страна: США, Германия, Канада, Австралия
Жанр: драма, биография
Год выпуска: 2015
Продолжительность: 01:51:32-Перевод: Любительский (двухголосый) [Parovoz Production]
Cубтитры: нет-Режиссер: Антон Корбейн-В ролях: Дэйн ДеХаан, Роберт Паттинсон, Питер Лукас, Лорен Галлахер,
Кендал Нагорка, Дрю Леджер, Алессандра Мастронарди, Джейсон Бликер-Описание: Фотографу журнала «Life» дают задание - сделать фотографии Джеймса Дина.-Качество видео: WEB-DLRip
Формат видео: AVI
Видео: Xvid 720x304 23.976fps
Аудио: Dolby AC3 48000Hz stereo 128kbps
-

MediaInfo

General
Complete name : E:\Films\L1fe.2015.L2.WEB-DLRip.1400MB.avi
Format : AVI
Format/Info : Audio Video Interleave
File size : 1.36 GiB
Duration : 1h 51mn
Overall bit rate : 1 749 Kbps
Writing application : VirtualDubMod 1.5.10.3 | www.virtualdub-fr.org || (build 2550/release)
Writing library : VirtualDubMod build 2550/release
Video
ID : 0
Format : MPEG-4 Visual
Format profile : Advanced [email protected]
Format settings, BVOP : 2
Format settings, QPel : No
Format settings, GMC : No warppoints
Format settings, Matrix : Default (MPEG)
Codec ID : XVID
Codec ID/Hint : XviD
Duration : 1h 51mn
Bit rate : 1 543 Kbps
Width : 720 pixels
Height : 304 pixels
Display aspect ratio : 2.35:1
Frame rate : 23.976 fps
Color space : YUV
Chroma subsampling : 4:2:0
Bit depth : 8 bits
Scan type : Progressive
Compression mode : Lossy
Bits/(Pixel*Frame) : 0.294
Stream size : 1.20 GiB (88%)
Writing library : XviD 1.2.1 (UTC 2008-12-04)
Audio
ID : 1
Format : AC-3
Format/Info : Audio Coding 3
Mode extension : CM (complete main)
Format settings, Endianness : Big
Codec ID : 2000
Duration : 1h 51mn
Bit rate mode : Constant
Bit rate : 128 Kbps
Channel(s) : 2 channels
Channel positions : Front: L R
Sampling rate : 48.0 KHz
Bit depth : 16 bits
Compression mode : Lossy
Stream size : 102 MiB (7%)
Alignment : Split accross interleaves

Скриншот c названием фильма

Скриншоты




Создавать темы 10-Дек-2015 10:43

[Профиль]  [ЛС] 

Clever

Стаж: 5 лет 2 месяца

Сообщений: 31

Скачали 186 Челов а отзыва 0, как Звук и перевод ?

Создавать темы 15-Дек-2015 23:37

[Профиль]  [ЛС] 
Показать сообщения:    
Ответить на тему

Текущее время: 17-Дек 15:14

Часовой пояс: UTC + 5



Вы не можете начинать темы
Вы не можете отвечать на сообщения
Вы не можете редактировать свои сообщения
Вы не можете удалять свои сообщения
Вы не можете голосовать в опросах
Вы не можете прикреплять файлы к сообщениям
Вы не можете скачивать файлы