Монстры на каникулах 1-2 / Hotel Transylvania 1-2 (Генндий Тартаковский) [2012/2015, США, Мультфильм, фэнтези, комедия, семейный, HDRip]

Ответить на тему
 

-ARTUR- ®

Стаж: 2 года 3 месяца

Сообщений: 50

Симпатии: 78

[sh]Монстры на каникулах 1-2 / Hotel Transylvania 1-2[/sh]-

Мостры на каникулах/Hotel Transylvania

-«Будет страшно смешно»- Год выхода:2012
Страна: США
Производство:Columbia Pictures, Sony Pictures Animation
Жанр:мультфильм, комедия, семейный
Продолжительность: 01:25:04--Доп. Инфо:
Режиссёр: Генндий Тартаковский
Сценарий: Питер Бейнхэм, Роберт Шмигель, Тодд Дархэм, ...
Продюсер: Мишель Мурдокка, Лидия Боттегони, Адам Сэндлер
Оператор: Калеб Дешанель
Композитор: Марк Мазерсбо
Художник: Марсело Винали, Рон Лукас, Ноэль Тиоро
Монтаж: Катрин Эппл--В ролях: Адам Сэндлер, Энди Сэмберг, Селена Гомес, Кевин Джеймс, Фрэн Дрешер, Стив Бушеми, Молли Шеннон, Дэвид Спейд, Си-Ло, Джон Ловиц--Описание: Граф Дракула для себя и своей любимой дочки построил хорошо укрытый от посторонних глаз отель, куда монстры со всего света приезжают отдохнуть от семейных забот, повседневной суеты и, конечно… людей. Но вездесущие американские туристы проникают и сюда.--Бюджет : 85 000 000
Сборы в США: 146 172 361
Сборы в мире: + 167 100 000 = $313 272 361
Сборы в России: 15 937 997--Премьера (мир): 8 сентября 2012, ...
Премьера (РФ): 18 октября 2012,
Релиз на Blu-Ray 29 января 2013, ...
Релиз на DVD: 29 января 2013, ...-Качество: HDRip
Формат: AVI
Видео кодек: XviD
Аудио кодеk: AC3 / MP3
Видео: 720x384 (1.88:1), 23.976 fps,MPEG-4 ~1685 kbps avg, 0.25 bit/pixel
Аудио #1: 48 kHz,Dolby Digital, 2/0 (L,R) ch, ~192 kbps Russian
Аудио #2: 48 kHz,Dolby Digital, 3/2 (L,C,R,l,r) + LFE ch, ~384 kbps English--

MediaInfo

Format                                   : AVI
Format/Info                              : Audio Video Interleave
File size                                : 1.45 GiB
Duration                                 : 1h 31mn
Overall bit rate                         : 2 276 Kbps
Writing application                      : VirtualDubMod 1.5.10.2 (build 2542/release)
Writing library                          : VirtualDubMod build 2542/release
Video
ID                                       : 0
Format                                   : MPEG-4 Visual
Format profile                           : Advanced [email protected]
Format settings, BVOP                    : 2
Format settings, QPel                    : No
Format settings, GMC                     : No warppoints
Format settings, Matrix                  : Default (MPEG)
Muxing mode                              : Packed bitstream
Codec ID                                 : XVID
Codec ID/Hint                            : XviD
Duration                                 : 1h 31mn
Bit rate                                 : 1 686 Kbps
Width                                    : 720 pixels
Height                                   : 384 pixels
Display aspect ratio                     : 1.875
Frame rate                               : 23.976 fps
Color space                              : YUV
Chroma subsampling                       : 4:2:0
Bit depth                                : 8 bits
Scan type                                : Progressive
Compression mode                         : Lossy
Bits/(Pixel*Frame)                       : 0.254
Stream size                              : 1.08 GiB (74%)
Writing library                          : XviD 73
Audio #1
ID                                       : 1
Format                                   : AC-3
Format/Info                              : Audio Coding 3
Mode extension                           : CM (complete main)
Codec ID                                 : 2000
Duration                                 : 1h 31mn
Bit rate mode                            : Constant
Bit rate                                 : 192 Kbps
Channel(s)                               : 2 channels
Channel positions                        : Front: L R
Sampling rate                            : 48.0 KHz
Bit depth                                : 16 bits
Compression mode                         : Lossy
Stream size                              : 126 MiB (8%)
Alignment                                : Split accross interleaves
Interleave, duration                     : 42 ms (1.00 video frame)
Interleave, preload duration             : 500 ms
Audio #2
ID                                       : 2
Format                                   : AC-3
Format/Info                              : Audio Coding 3
Mode extension                           : CM (complete main)
Codec ID                                 : 2000
Duration                                 : 1h 31mn
Bit rate mode                            : Constant
Bit rate                                 : 384 Kbps
Channel(s)                               : 6 channels
Channel positions                        : Front: L C R, Side: L R, LFE
Sampling rate                            : 48.0 KHz
Bit depth                                : 16 bits
Compression mode                         : Lossy
Stream size                              : 251 MiB (17%)
Alignment                                : Split accross interleaves
Interleave, duration                     : 42 ms (1.00 video frame)
Interleave, preload duration             : 500 ms

Знаете ли Вы, что...


★ Адрес отеля: Румыния, Умбре, улица Трансильванская, дом 666 (его можно увидеть на обратной стороне путеводителей, которые Дракула раздает гостям).
★ Sony Pictures Animation выпустила короткометражку 10 лет назад.
★ За основу для создания объемной прически Юнис была взята губка для мытья посуды.
★ выступил соавтором текста и сам спел песню «Sweet 118». Он записал ее в своем кабинете студии Saturday Night Live и проиграл Мишель Мурдокке по телефону во время разговора.
★ Часы Уэйна на самом деле показывают не время, а фазы Луны.
★ Дата выхода фильма, 28 сентября — Всемирный день борьбы с бешенством.
★ Пещера, в которую Мэйвис приводит Джонни, по форме напоминает лицо из мюзикла «Призрак Оперы».

Скриншоты



Монстры на каникулах 2/ Hotel Transylvania 2

-«Drac's pack is back»- - Год выпуска: 2015
Страна: США
Жанр: Мультфильм, фэнтези, комедия, семейный
Продолжительность: 01:20:18
Перевод:Дублированный [Звук с TS]-Режиссеры:Генндий Тартаковский--В ролях:Адам Сэндлер, Энди Сэмберг, Селена Гомес, Кевин Джеймс, Стив Бушеми, Дэвид Спейд, Кигэн-Майкл Ки, Эшер Блинкофф, Фрэн Дрешер, Молли Шеннон..-Описание:Действие фильма происходит через 7 лет после событий первого фильма. Дракуле теперь 539 лет, Мэвис — 125, а Джонатану — 28. Граф Дракула выдает свою очаровательную дочь замуж за парня из мира людей, и у молодой «смешанной» пары рождается сын. Станет ли этот ребенок человеком или вампиром?--Дополнительная информация:
Сценарий: Роберт Шмигель, Адам Сэндлер
Продюсер: Мишель Мурдокка, Аллен Коверт, Скай Лайонс
Оператор: Марк Мазерсбо
Монтаж: Майкл Курински, Стефен Дж. Ламли-Бюджет:$80 000 000-Сборы в США: $166 779 072
Сборы в мире: + $263 919 712 = $430 698 784
Сборы в России: $17 247 966-Зрители: 5.04 млн-Премьера (мир): 21 сентября 2015
Премьера (РФ): 22 октября 2015, «WDSSPR»-Возраст: зрителям, достигшим 6 лет
Рейтинг MPAA: рекомендуется присутствие родителей-Качество: HDTVRip
Формат: AVI
Видео кодек: XviD
Аудио кодек: AC3
Видео данные: XviD, 2001 kb/s, 720x352
Аудио данные: MP3, 192 kb/s (2 ch)

Скриншоты



Создавать темы 10-Дек-2015 17:58

[Профиль]  [ЛС] 

jamik82

Стаж: 4 года 3 месяца

Сообщений: 2

Первая часть на английском же (((

Информация от ruhal


Там две звуковые дорожки, просто переключи на русскую

Создавать темы 12-Фев-2016 15:59

[Профиль]  [ЛС] 
Показать сообщения:    
Ответить на тему

Текущее время: 22-Ноя 20:00

Часовой пояс: UTC + 5



Вы не можете начинать темы
Вы не можете отвечать на сообщения
Вы не можете редактировать свои сообщения
Вы не можете удалять свои сообщения
Вы не можете голосовать в опросах
Вы не можете прикреплять файлы к сообщениям
Вы не можете скачивать файлы