Танцующий в пустыне «Свобода требует мужества» / Desert Dancer [2014, Великобритания, Россия, драма, биография, HDRip] (DVO : [Parovoz Production]

Ответить на тему
 

shideb_sting ®

Стаж: 3 года 8 месяцев

Сообщений: 33

Симпатии: 62

Танцующий в пустыне / Desert Dancer / «Свобода требует мужества»
Страна: Великобритания, Россия
Жанр: драма, биография
Год выпуска: 2014
Продолжительность: 01:44:29
Перевод: Любительский (двухголосый закадровый) Доп. инфо о переводе [Parovoz Production]
Cубтитры: нет
Режиссер: Ричард Рэймонд
В ролях: Фрида Пинто, Назанин Бониади, Том Каллен, Саймон Кассианидес, Марама Корлетт, Рис Ричи, Крис Коулин, Акин Гази, Давуд Хадами, Толга Сафер
Описание: В Иране, где запрещено танцевать, Афшин и его друзья, несмотря на подстерегающие их опасности, основали подпольную танцевальную студию. Группа танцоров получила доступ к YouTube для того, чтобы научиться танцевать по видео роликам с участием Майкла Джексона, Пины Бауш и Рудольфа Нуриева. Упиваясь свободой самовыражения, полученной при помощи танца, они задумали организовать представление в пустыне, вдали от бдительных глаз безжалостной иранской организации «Басидж». Однако этот акт мужества и неповиновения повлек за собой ряд событий, из-за которых жизнь Афшина оказалась в опасности.
Доп. информация:
Сценарий: Джон Крокер, Afshin Ghaffarian
Продюсер: Rodika Zmikhnovskaya, Луис Асторкия, Фабиола Беракаса
Оператор: Карлос Каталан
Композитор: Бенджамин Уоллфисч
Художник: Шахрам Карими, Алистэр Кэй, Луиз Стьернсворд
Монтаж: Крис Гилл, Селия Хэйнинг
Бюджет: $4 000 000
Сборы в США: $155 271
Премьера (мир): 3 июля 2014 года
Премьера (РФ): 4 февраля 2016 года, «Ливандия Энтертейнмент»
Возраст: зрителям достигшим 16 лет
Качество видео: HDRip
Формат видео: AVI
Видео: Xvid 720x304 23.976fps 1861kbps
Аудио: Dolby AC3 48000Hz stereo 128kbps

MediaInfo

General
Complete name : 2eSer3.Dan7er.2014.L2.HDRip.avi
Format : AVI
Format/Info : Audio Video Interleave
File size : 1.46 GiB
Duration : 1h 44mn
Overall bit rate : 1 999 Kbps
Movie name : 2eSer3.Dan7er.2015.L2.HDRip.ELEKTRI4KA.uniongang.tv
Writing application : VirtualDubMod 1.5.10.3 | www.virtualdub-fr.org || (build 2550/release)
Copyright : UNIONGANG&RUSTORRENTS
Video
ID : 0
Format : MPEG-4 Visual
Format profile : Advanced [email protected]
Format settings, BVOP : 2
Format settings, QPel : No
Format settings, GMC : No warppoints
Format settings, Matrix : Default (MPEG)
Codec ID : XVID
Codec ID/Hint : XviD
Duration : 1h 44mn
Bit rate : 1 862 Kbps
Width : 720 pixels
Height : 304 pixels
Display aspect ratio : 2.35:1
Frame rate : 23.976 fps
Color space : YUV
Chroma subsampling : 4:2:0
Bit depth : 8 bits
Scan type : Progressive
Compression mode : Lossy
Bits/(Pixel*Frame) : 0.355
Stream size : 1.36 GiB (93%)
Writing library : XviD 1.2.1 (UTC 2008-12-04)
Audio
ID : 1
Format : AC-3
Format/Info : Audio Coding 3
Mode extension : CM (complete main)
Format settings, Endianness : Big
Codec ID : 2000
Duration : 1h 44mn
Bit rate mode : Constant
Bit rate : 128 Kbps
Channel(s) : 2 channels
Channel positions : Front: L R
Sampling rate : 48.0 KHz
Compression mode : Lossy
Stream size : 95.7 MiB (6%)
Alignment : Split accross interleaves
Interleave, duration : 42 ms (1.00 video frame)
Interleave, preload duration : 500 ms

Скриншоты






Создавать темы 10-Дек-2015 19:20

[Профиль]  [ЛС] 
Показать сообщения:    
Ответить на тему

Текущее время: 22-Авг 16:18

Часовой пояс: UTC + 5



Вы не можете начинать темы
Вы не можете отвечать на сообщения
Вы не можете редактировать свои сообщения
Вы не можете удалять свои сообщения
Вы не можете голосовать в опросах
Вы не можете прикреплять файлы к сообщениям
Вы не можете скачивать файлы