Муза / Ын Ге / A Muse / EunGyo (Чон Чжи У / Ji-woo Jung) [2012, Южная Корея, драма, DVDRip] Sub Rus

Ответить на тему
 

Jasur S ®

Стаж: 4 года 6 месяцев

Сообщений: 110

Симпатии: 111

Муза / Ын Ге / A Muse / EunGyo
-
Страна: Южная Корея
Жанр: драма
Год выпуска: 2012
Продолжительность: 02:09:02
Перевод: субтитры
Cубтитры: русские
Оригинальная аудиодорожка: корейский
-
Режиссер: Чон Чжи У / Ji-woo Jung
В ролях: Ким Со Ын, Пак Хэ Иль, Ким Му Ёль, Чон Ман Сик, Ким Го Ын
Описание: История знаменитого корейского поэта Ли Чжок Ё, который в возрасте семидесяти лет влюбляется в юную и прекрасную семнадцатилетнюю девушку по имени Хан Ын Ге. Гений не может сопротивляться чувству, которое угрожает поглотить его целиком и ведет его к отчаянию и саморазрушению. Ситуация становится еще более запутанной, когда участником любовного треугольника становится ученик поэта Со Чжи У, завидующий таланту своего наставника.
-
Доп. информация: Для взрослых.
Качество видео: DVDRip
Формат видео: AVI
Видео: Xvid 640x320 23.976fps 1065kbps [V: mpeg4 advanced simple profile, yuv420p, 640x320, 1065 kb/s]
Аудио: Dolby AC3 48000Hz 6ch 448kbps [A: ac3, 48000 Hz, 5.1, 448 kb/s]

MediaInfo

General
Complete name : E:\Movies\EunGyo.2012.DVDRip.XviD-BeFRee\EunGyo.2012.DVDRip.XviD-BeFRee.avi
Format : AVI
Format/Info : Audio Video Interleave
File size : 1.37 GiB
Duration : 2h 9mn
Overall bit rate : 1 523 Kbps
Writing application : VirtualDubMod 1.5.10.2 (build 2540/release)
Writing library : VirtualDubMod build 2540/release
Video
ID : 0
Format : MPEG-4 Visual
Format profile : Advanced [email protected]
Format settings, BVOP : 2
Format settings, QPel : No
Format settings, GMC : No warppoints
Format settings, Matrix : Default (H.263)
Muxing mode : Packed bitstream
Codec ID : XVID
Codec ID/Hint : XviD
Duration : 2h 9mn
Bit rate : 1 065 Kbps
Width : 640 pixels
Height : 320 pixels
Display aspect ratio : 2.000
Frame rate : 23.976 fps
Color space : YUV
Chroma subsampling : 4:2:0
Bit depth : 8 bits
Scan type : Progressive
Compression mode : Lossy
Bits/(Pixel*Frame) : 0.217
Stream size : 983 MiB (70%)
Writing library : XviD 1.0.3 (UTC 2004-12-20)
Audio
ID : 1
Format : AC-3
Format/Info : Audio Coding 3
Mode extension : CM (complete main)
Format settings, Endianness : Big
Codec ID : 2000
Duration : 2h 9mn
Bit rate mode : Constant
Bit rate : 448 Kbps
Channel(s) : 6 channels
Channel positions : Front: L C R, Side: L R, LFE
Sampling rate : 48.0 KHz
Compression mode : Lossy
Stream size : 413 MiB (29%)
Alignment : Split accross interleaves
Interleave, duration : 42 ms (1.00 video frame)
Interleave, preload duration : 500 ms

Скриншоты




Создавать темы 11-Дек-2015 15:44

[Профиль]  [ЛС] 

Jasur S ®

Стаж: 4 года 6 месяцев

Сообщений: 110

Симпатии: 111

Оформил как только скачал, так что пока ничего не могу сказать о фильме) Всем приятного просмотра!:)

Создавать темы 11-Дек-2015 15:50

[Профиль]  [ЛС] 

Pavelten

Стаж: 2 года

Сообщений: 17

Симпатии: 2

А там есть шпили вили ?

Создавать темы 13-Дек-2015 01:17

[Профиль]  [ЛС] 

MiroMi

Стаж: 2 года 2 месяца

Сообщений: 11

Симпатии: 26

961965А там есть шпили вили ?
Доп. информация: Для взрослых. а разве это не означает шпили вили ?

Создавать темы 13-Дек-2015 16:47

[Профиль]  [ЛС] 

Jasur S ®

Стаж: 4 года 6 месяцев

Сообщений: 110

Симпатии: 111

Pavelten, а что если нет?

Создавать темы 13-Дек-2015 19:44

[Профиль]  [ЛС] 
Показать сообщения:    
Ответить на тему

Текущее время: 23-Окт 16:50

Часовой пояс: UTC + 5



Вы не можете начинать темы
Вы не можете отвечать на сообщения
Вы не можете редактировать свои сообщения
Вы не можете удалять свои сообщения
Вы не можете голосовать в опросах
Вы не можете прикреплять файлы к сообщениям
Вы не можете скачивать файлы