Таинственный ангел / The Secret Angel / The Wonder Love / Angel and Love (Matsuyama Hiroaki, Kato Hiromasa, Ishii Yusuke ) [10/10] [KOR+SUB] [Китай, Южная Корея, 2012 год, мини-дорама, романтика, WebRip]

Ответить на тему
 

Jasur S ®

Стаж: 4 года 8 месяцев

Сообщений: 110

Симпатии: 111

-Таинственный ангел / The Secret Angel
The Wonder Love / Angel and Love

-
Страна: Китай, Южная Корея
Жанр: мини-дорама, романтика
Год выпуска: 2012
Продолжительность: 10 серий по ~15 мин
Cубтитры: русские
Оригинальная аудиодорожка: корейский
-
Режиссеры: Хироаки Матсуяма, Хиромаса Като, Юскэ Исий
В ролях:
Ким Со Ын, Чан У Хёк, Ю Ра, Чэнь Сян
Описание: Мини-дорама, повествующая об Ангеле Эль, которая должна защищать человека в течение ста дней от Ангела Смерти.
Это интернет-дорама, выпущенная специально для показа на китайском сайте Sohu.tv
Дорама имеет огромный успех и в первый же день выхода набрала 1,2 млн просмотров.-Доп. информация:
Мини-дорама, повествующая об Ангеле Эль, которая должна защищать человека в течение ста дней от Ангела Смерти.
Это интернет-дорама, выпущенная специально для показа на китайском сайте Sohu.tv
Дорама имеет огромный успех и в первый же день выхода набрала 1,2 млн просмотров.
-
Качество видео: WebRip
Формат видео: AVI
Видео: Xvid 848x472 25fps 968kbps [V: mpeg4 advanced simple profile, yuv420p, 848x472, 968 kb/s]
Аудио: MP3 44100Hz stereo 128kbps [A: mp3, 44100 Hz, stereo, 128 kb/s]

MediaInfo

General
Complete name : E:\Movies\[IRISubs] Secret Angel (hardsub)\[IRISubs] Secret Angel EP.1 (hardsub).avi
Format : AVI
Format/Info : Audio Video Interleave
File size : 103 MiB
Duration : 12mn 58s
Overall bit rate : 1 106 Kbps
Writing application : VirtualDubMod 1.5.10.2 (build 2540/release)
Writing library : VirtualDubMod build 2540/release
Video
ID : 0
Format : MPEG-4 Visual
Format profile : Advanced [email protected]
Format settings, BVOP : 3
Format settings, QPel : Yes
Format settings, GMC : 3 warppoints
Format settings, Matrix : Default (H.263)
Muxing mode : Packed bitstream
Codec ID : XVID
Codec ID/Hint : XviD
Duration : 12mn 58s
Bit rate : 969 Kbps
Width : 848 pixels
Height : 472 pixels
Display aspect ratio : 16:9
Frame rate : 25.000 fps
Color space : YUV
Chroma subsampling : 4:2:0
Bit depth : 8 bits
Scan type : Progressive
Compression mode : Lossy
Bits/(Pixel*Frame) : 0.097
Stream size : 89.9 MiB (88%)
Writing library : XviD 1.2.0.dev47 (UTC 2006-11-01)
Audio
ID : 1
Format : MPEG Audio
Format version : Version 1
Format profile : Layer 3
Mode : Joint stereo
Mode extension : MS Stereo
Codec ID : 55
Codec ID/Hint : MP3
Duration : 12mn 58s
Bit rate mode : Constant
Bit rate : 128 Kbps
Channel(s) : 2 channels
Sampling rate : 44.1 KHz
Compression mode : Lossy
Stream size : 11.9 MiB (12%)
Alignment : Split accross interleaves
Interleave, duration : 40 ms (1.00 video frame)
Interleave, preload duration : 500 ms
Writing library : LAME3.98

Скриншоты





Создавать темы 11-Дек-2015 16:00

[Профиль]  [ЛС] 
Показать сообщения:    
Ответить на тему

Текущее время: 13-Дек 02:37

Часовой пояс: UTC + 5



Вы не можете начинать темы
Вы не можете отвечать на сообщения
Вы не можете редактировать свои сообщения
Вы не можете удалять свои сообщения
Вы не можете голосовать в опросах
Вы не можете прикреплять файлы к сообщениям
Вы не можете скачивать файлы